.
Авторизация | Регистрация
Хочешь лучшие торренты? Добавь свой email!
Добавить

Торрент скачать бесплатно

  • support: webmaster@btracker.club
» » Призраки дома на холме / The Haunting of Hill House (2018) WEB-DL [H.264 / 720p-LQ] (сезон 1, серии 1-10 из 10) АРК-ТВ Studio & VSI International торрент скачать бесплатно


    Призраки дома на холме / The Haunting of Hill House (2018) WEB-DL [H.264 / 720p-LQ] (сезон 1, серии 1-10 из 10) АРК-ТВ Studio & VSI International торрент скачать бесплатно

    Опубликовал: fregat | Дата: 31-10-2018, 05:00 | .torrent скачали: 0

    Призраки дома на холме / The Haunting of Hill House (2018) WEB-DL [H.264 / 720p-LQ] (сезон 1, серии 1-10 из 10) АРК-ТВ Studio & VSI InternationalПроизводство: США | Paramount Television, Amblin Television
    Жанр: фэнтези, драма, ужасы
    Режиссер: Майк Флэнеган

    Актеры
    Михил Хаушман, Карла Гуджино, Генри Томас, Элизабет Ризер, Оливер Джексон-Коэн, Кейт Сигел, Лулу Уилсон, МакКенна Грейс и др.

    Описание

    История семьи, которая долгое время жила в доме, населённом призраками. Годы спустя трагедия заставляет их вернуться в тот дом и встретиться лицом к лицу со злом, обитающим в его стенах.

    Возраст: 16+ (зрителям, достигшим 16 лет)
    Рейтинг MPAA: R (лицам до 17 лет обязательно присутствие взрослого)
    Дата мировой премьеры: 7 октября 2018
    Продолжительность: ~01: 00: 00 серия
    Качество видео: WEB-DL
    Перевод: Многоголосый закадровый, профессиональный (АРК-ТВ Studio VSI International)
    Субтитры: русские, английские
    Видео: AVC/H.264, 1280x720 (16: 9), ~1400 kbps
    Аудио 1: AC3, 6 ch, 384 kbps - русский, многоголосый закадровый
    Аудио 2: AC3, 6 ch, 384 kbps - английский

    General
    Unique ID : 171534608606452011560264271386354109676 (0x810C5D29F3C8D3EC9422988D2B8FCCEC)
    Complete name : D: Призраки дома на холме S01 720pПризраки дома на холме S01 720p_02.mkv
    Format : Matroska
    Format version : Version 2
    File size : 791 MiB
    Duration : 51 min 19 s
    Overall bit rate mode : Variable
    Overall bit rate : 2 156 kb/s
    Encoded date : UTC 2018-10-12 19: 47: 44
    Writing application : mkvmerge v7.8.0 ('River Man') 32bit built on Apr 3 2015 12: 11: 22
    Writing library : libebml v1.3.1 + libmatroska v1.4.2
    Cover : Yes
    Attachments : cover.jpg
    Video
    ID : 1
    Format : AVC
    Format/Info : Advanced Video Codec
    Format profile : Main@L3.1
    Format settings : CABAC/3 Ref Frames
    Format settings, CABAC : Yes
    Format settings, ReFrames : 3 frames
    Codec ID : V_MPEG4/ISO/AVC
    Duration : 51 min 19 s
    Bit rate mode : Variable
    Bit rate : 1 400 kb/s
    Maximum bit rate : 2 100 kb/s
    Width : 1 280 pixels
    Height : 720 pixels
    Display aspect ratio : 16: 9
    Frame rate mode : Constant
    Frame rate : 23.976 (24000/1001) FPS
    Color space : YUV
    Chroma subsampling : 4: 2: 0
    Bit depth : 8 bits
    Scan type : Progressive
    Bits/(Pixel*Frame) : 0.063
    Stream size : 494 MiB (62%)
    Writing library : x264 core 148 r2715 7e75228
    Encoding settings : cabac=1/ref=3/deblock=1: 0: 0/analyse=0x1: 0x111/me=umh/subme=10/psy=1/psy_rd=1.00: 0.00/mixed_ref=1/me_range=24/chroma_me=1/trellis=2/8x8dct=0/cqm=0/deadzone=21, 11/fast_pskip=1/chroma_qp_offset=-2/threads=8/lookahead_threads=1/sliced_threads=0/nr=0/decimate=1/interlaced=0/bluray_compat=0/stitchable=1/constrained_intra=0/bframes=2/b_pyramid=0/b_adapt=2/b_bias=0/direct=3/weightb=1/open_gop=0/weightp=2/keyint=48/keyint_min=25/scenecut=0/intra_refresh=0/rc_lookahead=48/rc=2pass/mbtree=1/bitrate=1400/ratetol=1.0/qcomp=0.50/qpmin=6/qpmax=51/qpstep=4/cplxblur=20.0/qblur=0.5/vbv_maxrate=2100/vbv_bufsize=2800/nal_hrd=vbr/filler=0/ip_ratio=1.40/aq=1: 1.00
    Language : English
    Default : Yes
    Forced : No
    Audio #1
    ID : 2
    Format : AC-3
    Format/Info : Audio Coding 3
    Commercial name : Dolby Digital
    Codec ID : A_AC3
    Duration : 51 min 19 s
    Bit rate mode : Constant
    Bit rate : 384 kb/s
    Channel(s) : 6 channels
    Channel layout : L R C LFE Ls Rs
    Sampling rate : 48.0 kHz
    Frame rate : 31.250 FPS (1536 SPF)
    Bit depth : 16 bits
    Compression mode : Lossy
    Stream size : 141 MiB (18%)
    Language : Russian
    Service kind : Complete Main
    Default : Yes
    Forced : No
    Audio #2
    ID : 3
    Format : AC-3
    Format/Info : Audio Coding 3
    Commercial name : Dolby Digital
    Codec ID : A_AC3
    Duration : 51 min 19 s
    Bit rate mode : Constant
    Bit rate : 384 kb/s
    Channel(s) : 6 channels
    Channel layout : L R C LFE Ls Rs
    Sampling rate : 48.0 kHz
    Frame rate : 31.250 FPS (1536 SPF)
    Bit depth : 16 bits
    Compression mode : Lossy
    Stream size : 141 MiB (18%)
    Language : English
    Service kind : Complete Main
    Default : No
    Forced : No
    Text #1
    ID : 4
    Format : UTF-8
    Codec ID : S_TEXT/UTF8
    Codec ID/Info : UTF-8 Plain Text
    Language : Russian
    Default : No
    Forced : No
    Text #2
    ID : 5
    Format : UTF-8
    Codec ID : S_TEXT/UTF8
    Codec ID/Info : UTF-8 Plain Text
    Title : SDH
    Language : English
    Default : Yes
    Forced : No

    Скриншоты для ознакомления



    Все одноименные релизы в Клубе
    Время раздачи: 24/7 (до появления первых 3-5 скачавших)


    Онлайн видео Призраки дома на холме



    Призраки дома на холме/The Haunting of Hill House (2018) WEB-DL [H.264/720p-LQ] (сезон 1, серии 1-10 из 10) АРК-ТВ Studio & VSI International
    Рейтинг →
     (голосов: 1, оценка 5/5, голосовать можно 1 раз )

    Другие торренты по теме:

  • Призраки дома на холме / The Haunting of Hill House (2018) WEB-DL [H.264 / 1080p-LQ] (сезон 1, серии 1-10 из 10) TVShows
  • Призраки дома на холме / The Haunting of Hill House (2018) WEBRip [H.264 / 1080p-LQ] (сезон 1, серии 1-10 из 10) АРК-ТВ Studio & VSI International


    • Комментарии (0):

      Информация

      Информация

        Посетители, находящиеся в группе Гости, не могут оставлять комментарии в данной новости.

        ↓ Меню




        ↓ Опрос

        Вы добавили сайт в закладки?
        Да
        Нет


        Top 10 за месяц (Фильмы)