.
Авторизация | Регистрация
Хочешь лучшие торренты? Добавь свой email!
Добавить

Торрент скачать бесплатно

  • support: webmaster@btracker.club
» » Морская полиция: Спецотдел / NCIS: Naval Criminal Investigative Service (2018) WEBRip (сезон 16, серии 1-5 из 20) Baibako (обновляемая) [AD] торрент скачать бесплатно


    Морская полиция: Спецотдел / NCIS: Naval Criminal Investigative Service (2018) WEBRip (сезон 16, серии 1-5 из 20) Baibako (обновляемая) [AD] торрент скачать бесплатно

    Опубликовал: fregat | Дата: 31-10-2018, 05:00 | .torrent скачали: 0

    Морская полиция: Спецотдел / NCIS: Naval Criminal Investigative Service (2018) WEBRip (сезон 16, серии 1-5 из 20) Baibako (обновляемая) [AD]Производство: США
    Жанр: боевик, триллер, драма, комедия, криминал, детектив
    Режиссер: Тони Вормби, Терренс Охара, Джеймс Витмор Мл.

    Актеры
    Марк Хэрмон, Дэвид МакКаллум, Поли Перретт, Шон Мюррэй, Брайан Дитцен, Роки Кэрролл, Эмили Уикершем, Уилмер Вальдеррама, Мария Белло, Диона Ризоновер и др.

    Описание

    Сериал о приключениях команды профессиональных спецагентов. Их миссия — расследовать преступления, которые каким-то образом связаны со служащими морской пехоты. Группу следователей возглавляет специальный агент Гиббс. Его команда — это экс-детектив Энтони ДиНоззо, выхоженка из Моссад — Зива Давид, специалисты в области судмедэкспертизы — Эбби Шуто и Дональд Маллард, а также профессионал в области IT — Тимоти МакГи.

    Возраст: 16+ (зрителям, достигшим 16 лет)
    Релиз от: Baibako
    Продолжительность: ~00: 44: 00 серия
    Качество видео: WEBRip
    Перевод: Многоголосый закадровый, профессиональный - Baibako
    Реклама: присутствуют аудио и видео вставки рекламы
    Видео: Xvid, 720x400 (16: 9), ~1500 Kbps
    Аудио 1 : MP3, 2 ch, 192 Kbps - русский, многоголосый закадровый
    Аудио 2 : MP3, 2 ch, 192 Kbps - английский

    Общее
    Полное имя : J: сериалыNCIS.s16.WEBRipNCIS.s16e01.WEBRip.XviD.Rus.Eng.BaibaKo.tv.avi
    Формат : AVI
    Формат/Информация : Audio Video Interleave
    Размер файла : 594 Мбайт
    Продолжительность : 43 м.
    Общий поток : 1891 Кбит/сек
    Видео
    Идентификатор : 0
    Формат : MPEG-4 Visual
    Профиль формата : Advanced Simple@L5
    Параметр BVOP формата : 2
    Параметр QPel формата : Нет
    Параметр GMC формата : Без точки перехода
    Параметр матрицы формата : Default (H.263)
    Идентификатор кодека : XVID
    Идентификатор кодека/Подсказка : XviD
    Продолжительность : 43 м.
    Битрейт : 1500 Кбит/сек
    Ширина : 720 пикселей
    Высота : 400 пикселей
    Соотношение сторон : 16: 9
    Частота кадров : 24, 000 кадра/сек
    Цветовое пространство : YUV
    Субдискретизация насыщенности : 4: 2: 0
    Битовая глубина : 8 бит
    Тип развёртки : Прогрессивная
    Метод сжатия : С потерями
    Бит/(Пиксели*Кадры) : 0.217
    Размер потока : 471 Мбайт (79%)
    Библиотека кодирования : XviD 65
    Аудио #1
    Идентификатор : 1
    Формат : MPEG Audio
    Версия формата : Version 1
    Профиль формата : Layer 3
    Режим : Joint stereo
    Расширение режима : MS Stereo
    Идентификатор кодека : 55
    Идентификатор кодека/Подсказка : MP3
    Продолжительность : 43 м.
    Вид битрейта : Постоянный
    Битрейт : 192 Кбит/сек
    Каналы : 2 канала
    Частота : 48, 0 КГц
    Метод сжатия : С потерями
    Размер потока : 60, 3 Мбайт (10%)
    Выравнивание : Соединение по промежуткам
    Продолжительность промежутка : 167 мс. (4, 00 видеокадра)
    Время предзагрузки промежутка : 216 мс.
    Заголовок : NCIS.S16E01 RUS
    Библиотека кодирования : LAME3.99r
    Настройки программы : -m j -V 4 -q 2 -lowpass 18.6 -b 192
    Аудио #2
    Идентификатор : 2
    Формат : MPEG Audio
    Версия формата : Version 1
    Профиль формата : Layer 3
    Режим : Joint stereo
    Расширение режима : MS Stereo
    Идентификатор кодека : 55
    Идентификатор кодека/Подсказка : MP3
    Продолжительность : 43 м.
    Вид битрейта : Постоянный
    Битрейт : 192 Кбит/сек
    Каналы : 2 канала
    Частота : 48, 0 КГц
    Метод сжатия : С потерями
    Размер потока : 60, 3 Мбайт (10%)
    Выравнивание : Соединение по промежуткам
    Продолжительность промежутка : 167 мс. (4, 00 видеокадра)
    Время предзагрузки промежутка : 216 мс.
    Заголовок : NCIS.S16E01 English
    Библиотека кодирования : LAME3.99r
    Настройки программы : -m j -V 4 -q 2 -lowpass 18.6 -b 192


    Онлайн видео Морская полиция: Спецотдел



    Морская полиция: Спецотдел/NCIS: Naval Criminal Investigative Service (2018) WEBRip (сезон 16, серии 1-5 из 20) Baibako (обновляемая) [AD]
    Рейтинг →
     (голосов: 1, оценка 3/5, голосовать можно 1 раз )

    Другие торренты по теме:

  • Морская полиция: Спецотдел / NCIS: Naval Criminal Investigative Service (2018) WEB-DL [H.264 / 1080p-LQ] (сезон 16, серии 1-6 из 24) TVShows (обновляемая)
  • Морская полиция: Новый Орлеан / NCIS: New Orleans (2014) HDTVRip [H.264 / 720p-LQ] [Сезон 1, Серия 1 из 24] (Обновляемая)
  • Морская полиция: Спецотдел / NCIS: Naval Criminal Investigative Service (2014) WEB-DLRip (сезон 12, серии 1 из ) To4ka (Обновляемая)
  • Морская полиция: Лос Анджелес / NCIS: Los Angeles (2014) WEB-DLRip (сезон 6, серии 1 из ) BaibaKo (обновляемая) скачать через торрент бесплатно
  • Морская полиция: Новый Орлеан / NCIS: New Orleans (2014) WEB-DLRip [серии 1-2 из 24] (Обновляемая) Kiitos
  • Морская полиция: Новый Орлеан / NCIS: New Orleans (2014) WEB-DLRip (сезон 1, серии 1 из ) BaibaKo (обновляемая)
  • Морская полиция: Лос Анджелес / NCIS: Los Angeles (2015) WEB-DLRip (сезон 7, серии 1 из ) BaibaKo (обновляемая) скачать через торрент бесплатно
  • Морская полиция: Спецотдел / NCIS: Naval Criminal Investigative Service (2015) HDTVRip (сезон 13, серии 1 из ) To4ka (обновляемая) скачать через торрент бесплатно


    • Комментарии (0):

      Информация

      Информация

        Посетители, находящиеся в группе Гости, не могут оставлять комментарии в данной новости.

        ↓ Меню




        ↓ Опрос

        Вы добавили сайт в закладки?
        Да
        Нет


        Top 10 за месяц (Фильмы)