.
Авторизация | Регистрация
Хочешь лучшие торренты? Добавь свой email!
Добавить

Торрент скачать бесплатно

  • support: webmaster@btracker.club
» » Дожить до любви (2017) HDTVRip (сезон 1, серии 1-16 из 16) торрент скачать бесплатно


    Дожить до любви (2017) HDTVRip (сезон 1, серии 1-16 из 16) торрент скачать бесплатно

    Опубликовал: fregat | Дата: 31-10-2018, 05:00 | .torrent скачали: 0

    Дожить до любви (2017) HDTVRip (сезон 1, серии 1-16 из 16)Производство: Россия/Bubblegum Production, Кинокомпания Грифон
    Жанр: мелодрама
    Режиссер: Владимир Балкашинов

    Актеры
    Дарья Повереннова, Алёна Хмельницкая, Алексей Матошин, Илья Шакунов, Вячеслав Чепурченко, Антонина Дивина, Владимир Капустин, Екатерина Соломатина, Мария Боровичева, Ксения Савицкая и др.

    Описание

    Жизнь Лизы Волковой и ее планы на счастливое будущее рушатся, когда ее отец попадает в тюрьму и вся семья оказывается на грани разорения и распада. Узнав, что причиной этого ужаса стала властная и категоричная Арина Мельникова, которая легко играет судьбами людей, Лиза твердо намерена отомстить обидчице и вернуть то, что ей было так дорого…

    Возраст: 16+ (зрителям, достигшим 16 лет)
    Дата российской премьеры: 22 октября 2018 (Россия-1)
    Продолжительность: ~00: 52: 00 серия
    Качество видео: HDTVRip
    Видео: Xvid, 720x400 (16: 9), ~1563 Kbps
    Аудио: AC3, 2 ch, 192 kbps

    Общее
    Полное имя : D: Мои фильмыDozhit'_do_lujbvi_S1_1-16iz16_2018_XviD_HDTVRipDozhit'_do_lujbvi_S1_01.avi
    Формат : AVI
    Формат/Информация : Audio Video Interleave
    Размер файла : 555 Мбайт
    Продолжительность : 44 м. 0 с.
    Общий поток : 1764 Кбит/сек
    Программа кодирования : VirtualDubMod 1.5.10.3www.virtualdub-fr.org|| (build 2550/release)
    Библиотека кодирования : VirtualDub2 build 41867/release
    Видео
    Идентификатор : 0
    Формат : MPEG-4 Visual
    Профиль формата : Advanced Simple@L5
    Настройки формата : BVOP2
    Параметр BVOP формата : 2
    Параметр QPel формата : Нет
    Параметр GMC формата : Без точки перехода
    Параметр матрицы формата : Default (H.263)
    Идентификатор кодека : XVID
    Идентификатор кодека/Подсказка : XviD
    Продолжительность : 44 м. 0 с.
    Битрейт : 1563 Кбит/сек
    Ширина : 720 пикселей
    Высота : 400 пикселей
    Соотношение сторон : 16: 9
    Частота кадров : 25, 000 кадров/сек
    Цветовое пространство : YUV
    Субдискретизация насыщенности : 4: 2: 0
    Битовая глубина : 8 бит
    Тип развёртки : Прогрессивная
    Метод сжатия : С потерями
    Бит/(Пиксели*Кадры) : 0.217
    Размер потока : 492 Мбайт (89%)
    Библиотека кодирования : XviD 67
    Аудио
    Идентификатор : 1
    Формат : AC-3
    Формат/Информация : Audio Coding 3
    Коммерческое название : Dolby Digital
    Идентификатор кодека : 2000
    Продолжительность : 44 м. 0 с.
    Вид битрейта : Постоянный
    Битрейт : 192 Кбит/сек
    Каналы : 2 канала
    Channel layout : L R
    Частота : 48, 0 КГц
    Частота кадров : 31, 250 кадров/сек (1536 SPF)
    Битовая глубина : 16 бит
    Метод сжатия : С потерями
    Размер потока : 60, 4 Мбайт (11%)
    Выравнивание : Соединение по промежуткам
    Продолжительность промежутка : 40 мс. (1, 00 видеокадр)
    Время предзагрузки промежутка : 512 мс.
    ServiceKind/String : Complete Main
    ,

    Скриншоты для ознакомления



    Все одноименные релизы в Клубе
    Время раздачи: с 07: 00 до 23: 00 (до появления первых 3-5 скачавших)


    Онлайн видео Дожить до любви (2017) HDTVRip (сезон любимого сериала 1, серии 1



    Дожить до любви (2017) HDTVRip (сезон 1, серии 1-16 из 16)
    Рейтинг →
     (голосов: 1, оценка 4/5, голосовать можно 1 раз )

    Другие торренты по теме:

  • Дожить до любви (2017) HDTVRip [H.264] (серии 1-12 из 16) (обновляемая)


    • Комментарии (0):

      Информация

      Информация

        Посетители, находящиеся в группе Гости, не могут оставлять комментарии в данной новости.

        ↓ Меню




        ↓ Опрос

        Вы добавили сайт в закладки?
        Да
        Нет


        Top 10 за месяц (Фильмы)