.
Авторизация | Регистрация
Хочешь лучшие торренты? Добавь свой email!
Добавить

Торрент скачать бесплатно

  • support: webmaster@btracker.club
» » Ментовские войны (2011) WEBRip (сезон 6, серии 1-16 из 16) торрент скачать бесплатно


    Ментовские войны (2011) WEBRip (сезон 6, серии 1-16 из 16) торрент скачать бесплатно

    Опубликовал: fregat | Дата: 31-10-2018, 05:00 | .torrent скачали: 0

    Ментовские войны (2011) WEBRip (сезон 6, серии 1-16 из 16)Производство: Россия/Студия Панорама, Форвард-фильм
    Жанр: детектив
    Режиссер: Сергей Раевский

    Актеры
    Александр Устюгов, Дмитрий Быковский-Ромашов, Всеволод Цурило, Сергей Яценюк, Василий Гузов, Александр Передков, Андрей Родимов, Андрей Кузнецов, Светлана Смирнова-Кацагаджиева, Александр Солоненко и др.

    Описание

    В новых сериях герои проекта – сотрудники отдела по расследованию умышленных убийств ГУВД Петербурга - продолжат борьбу с наиболее опасными представителями криминальной изнанки города и будут вынуждены вновь столкнуться с так называемыми оборотнями в погонах, уродливым явлением нашего общества, которые способны причинить не меньший вред, чем закоренелые преступники...

    Возраст: 16+ (зрителям, достигшим 16 лет)
    Продолжительность: ~00: 45: 00 серия
    Качество видео: WEBRip
    Видео: Xvid, 720x400 (16: 9), ~1486 Kbps
    Аудио: AC3, 2 ch, 192 kbps

    Общее
    Полное имя : D: Мои фильмыMentovskie_vojny_S6_1-16iz16_2011_XviD_WEBRip.Банда.(1 сер.).avi
    Формат : AVI
    Формат/Информация : Audio Video Interleave
    Размер файла : 555 Мбайт
    Продолжительность : 46 м. 1 с.
    Общий поток : 1687 Кбит/сек
    Библиотека кодирования : VirtualDub2 build 41867/release
    Видео
    Идентификатор : 0
    Формат : MPEG-4 Visual
    Профиль формата : Advanced Simple@L5
    Настройки формата : BVOP2
    Параметр BVOP формата : 2
    Параметр QPel формата : Нет
    Параметр GMC формата : Без точки перехода
    Параметр матрицы формата : Default (H.263)
    Идентификатор кодека : XVID
    Идентификатор кодека/Подсказка : XviD
    Продолжительность : 46 м. 1 с.
    Битрейт : 1486 Кбит/сек
    Ширина : 720 пикселей
    Высота : 400 пикселей
    Соотношение сторон : 16: 9
    Частота кадров : 25, 000 кадров/сек
    Цветовое пространство : YUV
    Субдискретизация насыщенности : 4: 2: 0
    Битовая глубина : 8 бит
    Тип развёртки : Прогрессивная
    Метод сжатия : С потерями
    Бит/(Пиксели*Кадры) : 0.206
    Размер потока : 489 Мбайт (88%)
    Библиотека кодирования : XviD 67
    Аудио
    Идентификатор : 1
    Формат : AC-3
    Формат/Информация : Audio Coding 3
    Коммерческое название : Dolby Digital
    Идентификатор кодека : 2000
    Продолжительность : 46 м. 1 с.
    Вид битрейта : Постоянный
    Битрейт : 192 Кбит/сек
    Каналы : 2 канала
    Channel layout : L R
    Частота : 48, 0 КГц
    Частота кадров : 31, 250 кадров/сек (1536 SPF)
    Битовая глубина : 16 бит
    Метод сжатия : С потерями
    Размер потока : 63, 2 Мбайт (11%)
    Выравнивание : Соединение по промежуткам
    Продолжительность промежутка : 40 мс. (1, 00 видеокадр)
    Время предзагрузки промежутка : 512 мс.
    ServiceKind/String : Complete Main

    Скриншоты для ознакомления



    Все одноименные релизы в Клубе
    Время раздачи: с 07: 00 до 23: 00 (до появления первых 3-5 скачавших)


    Онлайн видео Ментовские войны (2011) WEBRip (сезон любимого сериала 6, серии 1



    Ментовские войны (2011) WEBRip (сезон 6, серии 1-16 из 16)
    Рейтинг →
     (голосов: 1, оценка 5/5, голосовать можно 1 раз )

    Другие торренты по теме:

  • Ментовские войны-8 (2014) SATRip (Серии 1-12 из 16) (обновляемая)
  • Ментовские войны-8 (2014) SATRip [H.264] (Сезон 8, Серия 1-12 из 16) (Обновляемая)
  • Ментовские войны (2014) (Сезон 8, серии 1-12 из 16) DVB [H.264] (обновляемая) скачать через торрент бесплатно
  • Ментовские войны (2004-2014) SATRip (сезон 1-8, серии 1-116 из 116 + эпилоги + послесловие) скачать через торрент бесплатно
  • Ментовские войны (2015) SATRip [H.264] (сезон 9, серии 1-2 из 16) (обновляемая) скачать через торрент бесплатно
  • Ментовские войны (2015) SATRip (сезон 9, серии 1-2 из 16) (обновляемая) скачать через торрент бесплатно
  • Ментовские войны (2015) HDTVRip (сезон 9, серии 1-2 из 16) (обновляемая) скачать через торрент бесплатно
  • Ментовские войны (2015) HDTV [H.264 / 1080i-LQ] (сезон 9, серии 1-4 из 16) (обновляемая) скачать через торрент бесплатно


    • Комментарии (0):

      Информация

      Информация

        Посетители, находящиеся в группе Гости, не могут оставлять комментарии в данной новости.

        ↓ Меню




        ↓ Опрос

        Вы добавили сайт в закладки?
        Да
        Нет


        Top 10 за месяц (Фильмы)