.
Авторизация | Регистрация
Хочешь лучшие торренты? Добавь свой email!
Добавить

Торрент скачать бесплатно

  • support: webmaster@btracker.club
» » В чужом краю (2018) HDTVRip (сезон 1, серии 1-3 из 12) (обновляемая) торрент скачать бесплатно


    В чужом краю (2018) HDTVRip (сезон 1, серии 1-3 из 12) (обновляемая) торрент скачать бесплатно

    Опубликовал: fregat | Дата: 31-10-2018, 05:00 | .torrent скачали: 0

    В чужом краю (2018) HDTVRip (сезон 1, серии 1-3 из 12) (обновляемая)Производство: Россия/ООО Кинокомпания Гамма
    Жанр: мелодрама
    Режиссер: Станислав Дремов

    Актеры
    Наталия Антонова, Ирина Розанова, Иван Оганесян, Юрий Батурин, Владимир Симонов, Екатерина Вуличенко, Анна Казючиц, Сергей Комаров, Ирина Рудоминская, Сергей Апрельский, Юлия Дробот и др.

    Описание

    Потеряв мужа и кров, Галина Кутепова приезжает с детьми и матерью в края, которые некогда были ей родными. Галина заново знакомится с отцом, которого не видела лет тридцать, ищет работу и смысл существования. Трудности, которые переносит героиня, закаляют ее, заставляют учиться принимать судьбоносные решения самостоятельно. Постепенно Галина обретает всё, о чём могла раньше только мечтать: новый дом, любимую работу и любимого мужчину. Однако внезапно к Галине возвращается муж, который тянет ее обратно – в старую жизнь...

    Возраст: 12+ (зрителям, достигшим 12 лет)
    Дата российской премьеры: 29 октября 2018 (Россия 1)
    Продолжительность: ~00: 42: 00 серия
    Качество видео: HDTVRip
    Видео: Xvid, 720x400 (16: 9), ~1800 Kbps
    Аудио: AC3, 2 ch, 192 Kbps

    Общее
    Полное имя : D: В чужом краю (2018)Серия 01.avi
    Формат : AVI
    Формат/Информация : Audio Video Interleave
    Размер файла : 567 Мбайт
    Продолжительность : 39 м. 32 с.
    Общий поток : 2003 Кбит/сек
    Программа кодирования : Lavf58.12.100
    Видео
    Идентификатор : 0
    Формат : xvid
    Идентификатор кодека : xvid
    Продолжительность : 39 м. 32 с.
    Битрейт : 1800 Кбит/сек
    Ширина : 720 пикселей
    Высота : 400 пикселей
    Соотношение сторон : 16: 9
    Частота кадров : 25, 000 кадров/сек
    Тип развёртки : Прогрессивная
    Бит/(Пиксели*Кадры) : 0.250
    Размер потока : 509 Мбайт (90%)
    Аудио
    Идентификатор : 1
    Формат : AC-3
    Формат/Информация : Audio Coding 3
    Коммерческое название : Dolby Digital
    Идентификатор кодека : 2000
    Продолжительность : 39 м. 32 с.
    Вид битрейта : Постоянный
    Битрейт : 192 Кбит/сек
    Каналы : 2 канала
    Channel layout : L R
    Частота : 48, 0 КГц
    Частота кадров : 31, 250 кадров/сек (1536 SPF)
    Битовая глубина : 16 бит
    Метод сжатия : С потерями
    Размер потока : 54, 3 Мбайт (10%)
    Выравнивание : Соединение по промежуткам
    Продолжительность промежутка : 32 мс. (0, 80 видеокадр)
    ServiceKind/String : Complete Main


    Онлайн видео В чужом краю (2018) HDTVRip (сезон любимого сериала 1, серии 1



    В чужом краю (2018) HDTVRip (сезон 1, серии 1-3 из 12) (обновляемая)
    Рейтинг →
     (голосов: 1, оценка 3/5, голосовать можно 1 раз )

    Другие торренты по теме:

  • Тимур Горяев | Шпаргалки для боссов. Жесткие и честные уроки управления, которые лучше выучить на чужом опыте (2016) [FB2] скачать через торрент бесплатно


    • Комментарии (0):

      Информация

      Информация

        Посетители, находящиеся в группе Гости, не могут оставлять комментарии в данной новости.

        ↓ Меню




        ↓ Опрос

        Вы добавили сайт в закладки?
        Да
        Нет


        Top 10 за месяц (Фильмы)