.
Авторизация | Регистрация
Хочешь лучшие торренты? Добавь свой email!
Добавить

Торрент скачать бесплатно

  • support: webmaster@btracker.club
» » Обычная женщина (2018) WEB-DL [H.264 / 720p-LQ] (серии 1-2 из 9) (обновляемая) торрент скачать бесплатно


    Обычная женщина (2018) WEB-DL [H.264 / 720p-LQ] (серии 1-2 из 9) (обновляемая) торрент скачать бесплатно

    Опубликовал: fregat | Дата: 31-10-2018, 05:00 | .torrent скачали: 0

    Обычная женщина (2018) WEB-DL [H.264 / 720p-LQ] (серии 1-2 из 9) (обновляемая)Производство: Россия
    Жанр: драма, криминал
    Режиссер: Борис Хлебников

    Актеры
    Анна Михалкова, Евгений Гришковец, Аглая Тарасова, Александра Бортич, Татьяна Догилева, Елизавета Кононова, Мария Андреева, Александр Сударев, Стася Милославская, Игорь Сигаев и др.

    Описание

    У 39-летней Марины обычный маленький бизнес — цветочный магазинчик, обычная семья — муж работает хирургом, дочери учатся: младшая — в частной школе, старшая — в институте, и вполне обычные заботы. Окружающим её жизнь кажется счастливой, но за этим благополучным фасадом скрываются невероятные семейные тайны. Это история самой обычной женщины, живущей очень необычной жизнью.

    Возраст: 16+ (зрителям, достигшим 16 лет)
    Дата российской премьеры: 29 октября 2018 (ТВ-3)
    Релиз от: Алехаndr
    Продолжительность: ~00: 42: 00 серия
    Качество видео: WEB-DL
    Видео: AVC/H.264, 1280x720 (16: 9), ~3550 Kbps
    Аудио: AC3, 2 ch, 192 Kbps

    Общее
    Уникальный идентификатор : 168131467920244519366910244662974979485 (0x7E7CF15FACDB9560020E80025EA99D9D)
    Полное имя : G: Обычная женщина (2018).by.АлехаndrСерия 1.by.Алехаndr.mkv
    Формат : Matroska
    Версия формата : Version 4
    Размер файла : 1, 10 Гбайт
    Продолжительность : 42 м. 2 с.
    Общий поток : 3746 Кбит/сек
    Дата кодирования : UTC 2018-10-29 19: 54: 05
    Программа кодирования : mkvmerge v28.2.0 ('The Awakening') 64-bit
    Библиотека кодирования : libebml v1.3.6 + libmatroska v1.4.9/Lavf57.71.100
    Видео
    Идентификатор : 1
    Формат : AVC
    Формат/Информация : Advanced Video Codec
    Профиль формата : High@L3.1
    Настройки формата : CABAC/1 Ref Frames
    Параметр CABAC формата : Да
    Параметр RefFrames формата : 1 кадр
    Параметр GOP формата : M=1, N=12
    Идентификатор кодека : V_MPEG4/ISO/AVC
    Продолжительность : 42 м. 2 с.
    Битрейт : 3552 Кбит/сек
    Ширина : 1280 пикселей
    Высота : 720 пикселей
    Соотношение сторон : 16: 9
    Режим частоты кадров : Постоянный
    Частота кадров : 25, 000 кадров/сек
    Стандарт вещания : Component
    Цветовое пространство : YUV
    Субдискретизация насыщенности : 4: 2: 0
    Битовая глубина : 8 бит
    Тип развёртки : Прогрессивная
    Бит/(Пиксели*Кадры) : 0.154
    Размер потока : 1, 04 Гбайт (95%)
    Default : Да
    Forced : Нет
    Цветовой диапазон : Limited
    Аудио
    Идентификатор : 2
    Формат : AC-3
    Формат/Информация : Audio Coding 3
    Коммерческое название : Dolby Digital
    Идентификатор кодека : A_AC3
    Продолжительность : 42 м. 2 с.
    Вид битрейта : Постоянный
    Битрейт : 192 Кбит/сек
    Каналы : 2 канала
    Channel layout : L R
    Частота : 48, 0 КГц
    Частота кадров : 31, 250 кадров/сек (1536 SPF)
    Битовая глубина : 16 бит
    Метод сжатия : С потерями
    Размер потока : 57, 7 Мбайт (5%)
    ServiceKind/String : Complete Main
    Default : Да
    Forced : Нет


    Онлайн видео Обычная женщина (2018) WEB-DL [H.264



    Обычная женщина (2018) WEB-DL [H.264/720p-LQ] (серии 1-2 из 9) (обновляемая)
    Рейтинг →
     (голосов: 1, оценка 3/5, голосовать можно 1 раз )

    Другие торренты по теме:

  • Обычная женщина (2018) WEB-DLRip (серии 1 из 9) (обновляемая)
  • Обычная женщина (2018) WEB-DL [H.264 / 1080p-LQ] (серии 1-3 из 9) (обновляемая)
  • Обычная женщина (2018) WEB-DLRip [H.264] (серии 1-9 из 9)


    • Комментарии (0):

      Информация

      Информация

        Посетители, находящиеся в группе Гости, не могут оставлять комментарии в данной новости.

        ↓ Меню




        ↓ Опрос

        Вы добавили сайт в закладки?
        Да
        Нет


        Top 10 за месяц (Фильмы)