.
Авторизация | Регистрация
Хочешь лучшие торренты? Добавь свой email!
Добавить

Торрент скачать бесплатно

  • support: webmaster@btracker.club
» » Ворона (2017) WEB-DL [H.264 / 1080p-LQ] (сезон 1, серии 1-5 из 12) (обновляемая) торрент скачать бесплатно


    Ворона (2017) WEB-DL [H.264 / 1080p-LQ] (сезон 1, серии 1-5 из 12) (обновляемая) торрент скачать бесплатно

    Опубликовал: fregat | Дата: 31-10-2018, 05:00 | .torrent скачали: 1

    Ворона (2017) WEB-DL [H.264 / 1080p-LQ] (сезон 1, серии 1-5 из 12) (обновляемая)Производство: Россия | Мармот-фильм
    Жанр: детектив, триллер
    Режиссер: Ольга Ангелова, Евгений Сосницкий

    Актеры
    Елизавета Боярская, Анатолий Белый, Екатерина Попова, Антон Сычев, Дианна Дезмари, Елена Мартыненко, Владимир Селезнев, Юрий Ковалев, Андрей Павлютин, Андрей Панков и др.

    Описание

    Когда-то она была подающей надежды пианисткой, но однажды выбрала другой путь и стала следователем по особо важным делам. В родном ОВД Анна Воронцова сразу прославилась неуживчивым нравом и сложным характером, а за глаза коллеги прозвали ее Вороной. Но руководство ценит решительного сотрудника, поскольку Воронцова всегда творчески подходит к делу и доводит начатое до конца.

    Возраст: 16+ (зрителям, достигшим 16 лет)
    Дата российской премьеры: 29 октября 2018 НТВ
    Продолжительность: ~00: 48: 00 серия
    Качество видео: WEB-DL
    Видео: AVC/H.264, 1920x1080 (16: 9), ~6000 kbps
    Аудио: AC3, 2 ch, 192 kbps

    General
    Unique ID : 248854055283067344520954230458119562418 (0xBB378C3518A8A8AAA0B70810473324B2)
    Complete name : D: Vorona_2017_WEB-DL_1080pVorona_2017_WEB-DL_1080p_01.mkv
    Format : Matroska
    Format version : Version 4
    File size : 2.07 GiB
    Duration : 48 min 20 s
    Overall bit rate mode : Constant
    Overall bit rate : 6 137 kb/s
    Encoded date : UTC 2018-10-29 19: 09: 37
    Writing application : mkvmerge v7.8.0 ('River Man') 32bit built on Mar 27 2015 16: 18: 02
    Writing library : libebml v1.3.1 + libmatroska v1.4.2
    Video
    ID : 1
    Format : AVC
    Format/Info : Advanced Video Codec
    Format profile : High@L4.1
    Format settings : 2 Ref Frames
    Format settings, CABAC : No
    Format settings, ReFrames : 2 frames
    Codec ID : V_MPEG4/ISO/AVC
    Duration : 48 min 20 s
    Bit rate mode : Constant
    Bit rate : 6 000 kb/s
    Width : 1 920 pixels
    Height : 1 080 pixels
    Display aspect ratio : 16: 9
    Frame rate mode : Constant
    Frame rate : 25.000 FPS
    Standard : PAL
    Color space : YUV
    Chroma subsampling : 4: 2: 0
    Bit depth : 8 bits
    Scan type : Progressive
    Bits/(Pixel*Frame) : 0.116
    Stream size : 2.01 GiB (97%)
    Default : Yes
    Forced : No
    Color range : Limited
    Color primaries : BT.709
    Transfer characteristics : BT.709
    Matrix coefficients : BT.709
    Audio
    ID : 2
    Format : AC-3
    Format/Info : Audio Coding 3
    Commercial name : Dolby Digital
    Codec ID : A_AC3
    Duration : 48 min 20 s
    Bit rate mode : Constant
    Bit rate : 192 kb/s
    Channel(s) : 2 channels
    Channel layout : L R
    Sampling rate : 48.0 kHz
    Frame rate : 31.250 FPS (1536 SPF)
    Bit depth : 16 bits
    Compression mode : Lossy
    Stream size : 66.4 MiB (3%)
    Language : Russian
    Service kind : Complete Main
    Default : Yes
    Forced : No


    Онлайн видео Ворона (2017) WEB-DL [H.264



    Ворона (2017) WEB-DL [H.264/1080p-LQ] (сезон 1, серии 1-5 из 12) (обновляемая)
    Рейтинг →
     (голосов: 1, оценка 3/5, голосовать можно 1 раз )

    Другие торренты по теме:

  • Выкорми ворона / Вскорми ворона / Cria cuervos (1976) BDRip [720p] скачать через торрент бесплатно
  • В.А.Ворона, В.А.Тихонов | Технические средства наблюдения в охране объектов (2011) [DJVU]
  • Сын ворона (2014) DVB (сезон 1, серии 1-8 из 8) скачать через торрент бесплатно
  • Сын ворона (2014) SATRip (сезон 1,серии 1-8 из 8) скачать через торрент бесплатно
  • Дмитрий Горбунов | Ворона Ивановна (1972) [JPG] скачать через торрент бесплатно
  • Ной - белая ворона / Noi albinoi (2003) DVDRip скачать через торрент бесплатно
  • Александр Прозоров | Кровь ворона [Ведун - Книга 8] (2013) [m4b|AAC]
  • Линда - Ворона (1996) [FLAC|Lossless|image + .cue] <Electronic, Rock>


    • Комментарии (0):

      Информация

      Информация

        Посетители, находящиеся в группе Гости, не могут оставлять комментарии в данной новости.

        ↓ Меню




        ↓ Опрос

        Вы добавили сайт в закладки?
        Да
        Нет


        Top 10 за месяц (Фильмы)