.
Авторизация | Регистрация
Хочешь лучшие торренты? Добавь свой email!
Добавить

Торрент скачать бесплатно

  • support: webmaster@btracker.club
» » Чарли и шоколадная фабрика / Charlie and the Chocolate Factory (2005) BDRip [H.265 / 1080p-LQ] [10-bit] торрент скачать бесплатно


    Чарли и шоколадная фабрика / Charlie and the Chocolate Factory (2005) BDRip [H.265 / 1080p-LQ] [10-bit] торрент скачать бесплатно

    Опубликовал: fregat | Дата: 31-10-2018, 05:00 | .torrent скачали: 0

    Чарли и шоколадная фабрика / Charlie and the Chocolate Factory (2005) BDRip [H.265 / 1080p-LQ] [10-bit]Производство: США
    Жанр: Фэнтези, Комедия, Приключения, Семейный
    Режиссер: Тим Бёртон

    Актеры
    Джонни Депп, Фредди Хаймор, Дэвид Келли, Хелена Бонем Картер

    Описание

    Какие чудеса ждут вас на фабрике Вилли Вонки? Только представьте: травяные луга из сладкого мятного сахара в Шоколадной Комнате. .. Можно проплыть по Шоколадной реке на розовой сахарной лодке. ..

    Возраст: 6+ (зрителям, достигшим 6 лет)
    Рейтинг MPAA: PG (рекомендуется присутствие родителей)
    Релиз от: Мичман
    Продолжительность: 01: 55: 23
    Качество видео: BDRip
    Перевод: Дублированный (Лицензия)
    Субтитры: Русские (форсированные, полные), английские
    Видео: HEVC/H.265, 1920x1080, ~8102 Kbps
    Аудио 1: AC3, 6 ch, 640 Kbps - Дублированный
    Аудио 2: AC3, 6 ch, 640 Kbps - Английский

    Общее
    Уникальный идентификатор : 225088813020381614962045714416104041491 (0xA956874CB5C92CF6E11E6C8BE386EC13)
    Полное имя : F: РАЗДАЧИЧарли и шоколадная фабрика. 2005. 1080. HEVC. 10 bit.mkv
    Формат : Matroska
    Версия формата : Version 4/Version 2
    Размер файла : 7, 56 Гбайт
    Продолжительность : 1 ч. 55 м.
    Общий поток : 9384 Кбит/сек
    Название фильма : Charlie and the Chocolate Factory 2005
    Дата кодирования : UTC 2018-10-28 07: 51: 48
    Программа кодирования : mkvmerge v27.0.0 ('Metropolis') 64-bit
    Библиотека кодирования : libebml v1.3.6 + libmatroska v1.4.9
    Обложка : Yes
    Attachments : cover.jpg
    Видео
    Идентификатор : 1
    Формат : HEVC
    Формат/Информация : High Efficiency Video Coding
    Профиль формата : Main10@L4.1@High
    Идентификатор кодека : V_MPEGH/ISO/HEVC
    Продолжительность : 1 ч. 55 м.
    Битрейт : 8102 Кбит/сек
    Ширина : 1920 пикселей
    Высота : 1080 пикселей
    Соотношение сторон : 16: 9
    Режим частоты кадров : Постоянный
    Частота кадров : 23, 976 (23976/1000) кадра/сек
    Частота кадров в оригинале : 23, 976 (24000/1001) кадра/сек
    Цветовое пространство : YUV
    Субдискретизация насыщенности : 4: 2: 0
    Битовая глубина : 10 бит
    Бит/(Пиксели*Кадры) : 0.163
    Размер потока : 6, 53 Гбайт (86%)
    Библиотека кодирования : x265 2.8+74-fd517ae68f93: WindowsGCC 7.3.064 bit 10bit
    Настройки программы : cpuid=1111039/frame-threads=13/numa-pools=12/wpp/no-pmode/no-pme/no-psnr/no-ssim/log-level=3/input-csp=1/input-res=1920x1080/interlace=0/total-frames=0/level-idc=41/high-tier=1/uhd-bd=0/ref=5/allow-non-conformance/no-repeat-t_heads/annexb/no-aud/no-hrd/info/hash=0/no-temporal-layers/open-gop/min-keyint=24/keyint=240/gop-lookahead=0/bframes=11/b-adapt=2/b-pyramid/bframe-bias=0/rc-lookahead=60/lookahead-slices=4/scenecut=40/radl=0/no-intra-refresh/ctu=32/min-cu-size=8/rect/amp/max-tu-size=32/tu-inter-depth=4/tu-intra-depth=4/limit-tu=0/rdoq-level=2/dynamic-rd=0.00/no-ssim-rd/signhide/no-tskip/nr-intra=0/nr-inter=0/no-constrained-intra/no-strong-intra-smoothing/max-merge=3/limit-refs=1/limit-modes/me=3/subme=7/merange=57/temporal-mvp/weightp/weightb/no-analyze-src-pics/deblock=-3: -3/no-sao/no-sao-non-deblock/rd=6/no-early-skip/rskip/no-fast-intra/no-tskip-fast/no-cu-lossless/no-b-intra/no-splitrd-skip/rdpenalty=0/psy-rd=2.00/psy-rdoq=1.00/no-rd-refine/no-lossless/cbqpoffs=0/crqpoffs=0/rc=crf/crf=19.0/qcomp=0.60/qpstep=4/stats-write=0/stats-read=0/vbv-maxrate=50000/vbv-bufsize=50000/vbv-init=0.9/crf-max=30.0/crf-min=0.0/ipratio=1.40/pbratio=1.30/aq-mode=2/aq-strength=1.00/no-cutree/zone-count=0/no-strict-cbr/qg-size=32/no-rc-grain/qpmax=69/qpmin=0/no-const-vbv/sar=1/overscan=0/videoformat=5/range=0/colorprim=2/transfer=2/colormatrix=2/chromaloc=0/display-window=0/max-cll=0, 0/min-luma=0/max-luma=1023/log2-max-poc-lsb=8/vui-timing-info/vui-hrd-info/slices=1/no-opt-qp-pps/no-opt-ref-list-length-pps/no-multi-pass-opt-rps/scenecut-bias=0.05/no-opt-cu-delta-qp/no-aq-motion/no-hdr/no-hdr-opt/no-dhdr10-opt/no-idr-recovery-sei/analysis-reuse-level=5/scale-factor=0/refine-intra=0/refine-inter=0/refine-mv=0/no-limit-sao/ctu-info=0/no-lowpass-dct/refine-mv-type=0/copy-pic=1/max-ausize-factor=1.0/no-dynamic-refine/no-single-sei
    Default : Да
    Forced : Нет
    Аудио #1
    Идентификатор : 2
    Формат : AC-3
    Формат/Информация : Audio Coding 3
    Идентификатор кодека : A_AC3
    Продолжительность : 1 ч. 55 м.
    Вид битрейта : Постоянный
    Битрейт : 640 Кбит/сек
    Каналы : 6 каналов
    Расположение каналов : Front: L C R, Side: L R, LFE
    Частота : 48, 0 КГц
    Частота кадров : 31, 250 кадров/сек (1536 SPF)
    Битовая глубина : 16 бит
    Метод сжатия : С потерями
    Размер потока : 528 Мбайт (7%)
    Заголовок : DD Audio 5.1/48 kHz/640 kbps
    Язык : Russian
    ServiceKind/String : Complete Main
    Default : Да
    Forced : Нет
    Аудио #2
    Идентификатор : 3
    Формат : AC-3
    Формат/Информация : Audio Coding 3
    Идентификатор кодека : A_AC3
    Продолжительность : 1 ч. 55 м.
    Вид битрейта : Постоянный
    Битрейт : 640 Кбит/сек
    Каналы : 6 каналов
    Расположение каналов : Front: L C R, Side: L R, LFE
    Частота : 48, 0 КГц
    Частота кадров : 31, 250 кадров/сек (1536 SPF)
    Битовая глубина : 16 бит
    Метод сжатия : С потерями
    Размер потока : 528 Мбайт (7%)
    Заголовок : DD Audio 5.1/48 kHz/640 kbps
    Язык : English
    ServiceKind/String : Complete Main
    Default : Нет
    Forced : Нет
    Текст #1
    Идентификатор : 4
    Формат : UTF-8
    Идентификатор кодека : S_TEXT/UTF8
    Идентификатор кодека/Информация : UTF-8 Plain Text
    Продолжительность : 1 ч. 45 м.
    Битрейт : 1 бит/сек
    ElementCount : 35
    Размер потока : 1, 49 Кбайт (0%)
    Заголовок : Forced
    Язык : Russian
    Default : Да
    Forced : Нет
    Текст #2
    Идентификатор : 5
    Формат : UTF-8
    Идентификатор кодека : S_TEXT/UTF8
    Идентификатор кодека/Информация : UTF-8 Plain Text
    Продолжительность : 1 ч. 54 м.
    Битрейт : 79 бит/сек
    ElementCount : 1214
    Размер потока : 67, 1 Кбайт (0%)
    Язык : Russian
    Default : Нет
    Forced : Нет
    Текст #3
    Идентификатор : 6
    Формат : UTF-8
    Идентификатор кодека : S_TEXT/UTF8
    Идентификатор кодека/Информация : UTF-8 Plain Text
    Продолжительность : 1 ч. 44 м.
    Битрейт : 53 бит/сек
    ElementCount : 1149
    Размер потока : 41, 3 Кбайт (0%)
    Язык : English
    Default : Нет
    Forced : Нет
    Меню
    00: 00: 00.000 : : Глава 01
    00: 10: 00.000 : : Глава 02
    00: 20: 00.000 : : Глава 03
    00: 30: 00.000 : : Глава 04
    00: 40: 00.000 : : Глава 05
    00: 50: 00.000 : : Глава 06
    01: 00: 00.000 : : Глава 07
    01: 10: 00.000 : : Глава 08
    01: 20: 00.000 : : Глава 09
    01: 30: 00.000 : : Глава 10
    01: 40: 00.000 : : Глава 11
    01: 50: 00.000 : : Глава 12
    Доп. информация : -
    H.265/HEVC (High Efficiency Video Coding) - это новый стандарт кодирования видео.
    - Стандарт H.265/HEVC является логическим продолжением стандарта
    H.264/AVC (Advanced Video Coding), и характеризуется более эффективными
    алгоритмами сжатия, а также поддержкой высокого разрешения вплоть до 8K UHD
    (8192x4320). Первая версия стандарта H.265 была опубликована в начале 2013 года.
    - Рипы в фомате HEVC поддерживается не всеми аппаратными проигрывателями.
    - Для корректного воспроизведения может потребоваться обновление ПО.
    - Владельцам несовместимого железа просьба не беспокоить,
    есть альтернативные релизы.

    Скриншоты для ознакомления



    Все одноименные релизы в Клубе
    Время раздачи: с 8: 00 до 22: 00 (до появления первых 3-5 скачавших)


    Онлайн видео Чарли и шоколадная фабрика



    Чарли и шоколадная фабрика/Charlie and the Chocolate Factory (2005) BDRip [H.265/1080p-LQ] [10-bit]
    Рейтинг →
     (голосов: 1, оценка 5/5, голосовать можно 1 раз )

    Другие торренты по теме:

  • Чарли и шоколадная фабрика / Charlie and the Chocolate Factory (2005) BDRip [H.265 / 1080p-LQ]


    • Комментарии (0):

      Информация

      Информация

        Посетители, находящиеся в группе Гости, не могут оставлять комментарии в данной новости.

        ↓ Меню




        ↓ Опрос

        Вы добавили сайт в закладки?
        Да
        Нет


        Top 10 за месяц (Фильмы)