.
Авторизация | Регистрация
Хочешь лучшие торренты? Добавь свой email!
Добавить

Торрент скачать бесплатно

  • support: webmaster@btracker.club
» » Люди Икс: Последняя битва / X-Men: The Last Stand (2006) BDRip [H.265 / 1080p-LQ] [10-bit] торрент скачать бесплатно


    Люди Икс: Последняя битва / X-Men: The Last Stand (2006) BDRip [H.265 / 1080p-LQ] [10-bit] торрент скачать бесплатно

    Опубликовал: fregat | Дата: 31-10-2018, 05:00 | .torrent скачали: 1

    Люди Икс: Последняя битва / X-Men: The Last Stand (2006) BDRip [H.265 / 1080p-LQ] [10-bit]Производство: Канада, США, Великобритания
    Жанр: Фантастика, Боевик, Триллер, Приключения
    Режиссер: Бретт Рэтнер

    Актеры
    Хью Джекман, Холли Берри, Иэн МакКеллен, Фамке Янссен, Келси Грэммер

    Описание

    Людям Икс во главе с профессором Чарльзом Ксавьером приходится вступить в битву с самой эволюцией в лице их воскресшего товарища по команде. Джин Грэй, возрождённая в облике Тёмного Феникса, представляет опасность не только для самой себя, но и для мутантов и для всей человеческой расы.

    Возраст: 12+ (зрителям, достигшим 12 лет)
    Рейтинг MPAA: PG-13 (детям до 13 лет просмотр нежелателен)
    Релиз от: Cthulhu
    Продолжительность: 01: 44: 05
    Качество видео: BDRip
    Перевод: Дублированный (Лицензия)
    Субтитры: Русские, английские
    Видео: HEVC/H.265, 1920x800, ~7036 Kbps
    Аудио 1: AC3, 6 ch, 448 Kbps - Дублированный
    Аудио 2: AC3, 6 ch, 448 Kbps - DVO (П. Гланц и Ю. Артёмова)
    Аудио 3: AC3, 6 ch, 448 Kbps - AVO ( А. Гаврилов)
    Аудио 4: AC3, 6 ch, 448 Kbps - AVO (С. Рябов)
    Аудио 5: AC3, 6 ch, 448 Kbps - Английский

    Общее
    Уникальный идентификатор : 70773713439699012936586829668575674428 (0x353E857A65F6AD42E99A76E29B3D003C)
    Полное имя : F: РАЗДАЧИX-Men. The Last Stand (2006) BDRip 1080p HEVC 10Bit_Cthulhu.mkv
    Формат : Matroska
    Версия формата : Version 4/Version 2
    Размер файла : 6, 75 Гбайт
    Продолжительность : 1 ч. 44 м.
    Общий поток : 9279 Кбит/сек
    Название фильма : X-Men. The Last Stand (2006)_rip_by_Cthulhu
    Дата кодирования : UTC 2018-05-22 17: 23: 16
    Программа кодирования : mkvmerge v21.0.0 ('Tardigrades Will Inherit The Earth') 64-bit
    Библиотека кодирования : libebml v1.3.5 + libmatroska v1.4.8
    Обложка : Yes
    Attachments : cover.jpg
    Видео
    Идентификатор : 1
    Формат : HEVC
    Формат/Информация : High Efficiency Video Coding
    Профиль формата : Main10@L4.1@High
    Идентификатор кодека : V_MPEGH/ISO/HEVC
    Продолжительность : 1 ч. 44 м.
    Битрейт : 7036 Кбит/сек
    Ширина : 1920 пикселей
    Высота : 800 пикселей
    Соотношение сторон : 2, 40: 1
    Режим частоты кадров : Постоянный
    Частота кадров : 23, 976 (24000/1001) кадра/сек
    Цветовое пространство : YUV
    Субдискретизация насыщенности : 4: 2: 0
    Битовая глубина : 10 бит
    Бит/(Пиксели*Кадры) : 0.191
    Размер потока : 5, 12 Гбайт (76%)
    Библиотека кодирования : x265 2.7+340-aa9102400f24: WindowsGCC 8.0.164 bit 10bit
    Настройки программы : cpuid=1049583/frame-threads=4/numa-pools=4/wpp/no-pmode/no-pme/no-psnr/no-ssim/log-level=2/input-csp=1/input-res=1920x800/interlace=0/total-frames=149736/level-idc=0/high-tier=1/uhd-bd=0/ref=5/no-allow-non-conformance/no-repeat-t_heads/annexb/no-aud/no-hrd/info/hash=0/no-temporal-layers/open-gop/min-keyint=24/keyint=240/gop-lookahead=0/bframes=10/b-adapt=2/b-pyramid/bframe-bias=0/rc-lookahead=40/lookahead-slices=4/scenecut=40/radl=0/no-intra-refresh/ctu=64/min-cu-size=8/rect/no-amp/max-tu-size=32/tu-inter-depth=3/tu-intra-depth=3/limit-tu=4/rdoq-level=1/dynamic-rd=0.00/no-ssim-rd/signhide/no-tskip/nr-intra=0/nr-inter=0/no-constrained-intra/no-strong-intra-smoothing/max-merge=3/limit-refs=2/limit-modes/me=3/subme=7/merange=57/temporal-mvp/weightp/weightb/no-analyze-src-pics/deblock=-3: -3/no-sao/no-sao-non-deblock/rd=4/no-early-skip/rskip/no-fast-intra/no-tskip-fast/no-cu-lossless/no-b-intra/no-splitrd-skip/rdpenalty=0/psy-rd=2.00/psy-rdoq=1.00/no-rd-refine/no-lossless/cbqpoffs=0/crqpoffs=0/rc=crf/crf=18.0/qcomp=0.60/qpstep=4/stats-write=0/stats-read=0/vbv-maxrate=50000/vbv-bufsize=50000/vbv-init=0.9/crf-max=0.0/crf-min=0.0/ipratio=1.40/pbratio=1.30/aq-mode=1/aq-strength=1.00/cutree/zone-count=0/no-strict-cbr/qg-size=32/no-rc-grain/qpmax=69/qpmin=0/no-const-vbv/sar=1/overscan=0/videoformat=5/range=0/colorprim=1/transfer=1/colormatrix=1/chromaloc=0/display-window=0/max-cll=0, 0/min-luma=0/max-luma=1023/log2-max-poc-lsb=8/vui-timing-info/vui-hrd-info/slices=1/no-opt-qp-pps/no-opt-ref-list-length-pps/no-multi-pass-opt-rps/scenecut-bias=0.05/no-opt-cu-delta-qp/no-aq-motion/no-hdr/no-hdr-opt/no-dhdr10-opt/no-idr-recovery-sei/analysis-reuse-level=5/scale-factor=0/refine-intra=0/refine-inter=0/refine-mv=0/no-limit-sao/ctu-info=0/no-lowpass-dct/refine-mv-type=0/copy-pic=1/max-ausize-factor=1.0/no-dynamic-refine/no-single-sei
    Язык : English
    Default : Да
    Forced : Нет
    Цветовой диапазон : Limited
    Основные цвета : BT.709
    Характеристики трансфера : BT.709
    Коэффициенты матрицы : BT.709
    Аудио #1
    Идентификатор : 2
    Формат : AC-3
    Формат/Информация : Audio Coding 3
    Идентификатор кодека : A_AC3
    Продолжительность : 1 ч. 44 м.
    Вид битрейта : Постоянный
    Битрейт : 448 Кбит/сек
    Каналы : 6 каналов
    Расположение каналов : Front: L C R, Side: L R, LFE
    Частота : 48, 0 КГц
    Частота кадров : 31, 250 кадров/сек (1536 SPF)
    Битовая глубина : 16 бит
    Метод сжатия : С потерями
    Размер потока : 334 Мбайт (5%)
    Заголовок : DUB
    Язык : Russian
    ServiceKind/String : Complete Main
    Default : Да
    Forced : Нет
    Аудио #2
    Идентификатор : 3
    Формат : AC-3
    Формат/Информация : Audio Coding 3
    Идентификатор кодека : A_AC3
    Продолжительность : 1 ч. 44 м.
    Вид битрейта : Постоянный
    Битрейт : 448 Кбит/сек
    Каналы : 6 каналов
    Расположение каналов : Front: L C R, Side: L R, LFE
    Частота : 48, 0 КГц
    Частота кадров : 31, 250 кадров/сек (1536 SPF)
    Битовая глубина : 16 бит
    Метод сжатия : С потерями
    Размер потока : 334 Мбайт (5%)
    Заголовок : DVO (П. Гланц и Ю. Артёмова)
    Язык : Russian
    ServiceKind/String : Complete Main
    Default : Нет
    Forced : Нет
    Аудио #3
    Идентификатор : 4
    Формат : AC-3
    Формат/Информация : Audio Coding 3
    Идентификатор кодека : A_AC3
    Продолжительность : 1 ч. 44 м.
    Вид битрейта : Постоянный
    Битрейт : 448 Кбит/сек
    Каналы : 6 каналов
    Расположение каналов : Front: L C R, Side: L R, LFE
    Частота : 48, 0 КГц
    Частота кадров : 31, 250 кадров/сек (1536 SPF)
    Битовая глубина : 16 бит
    Метод сжатия : С потерями
    Размер потока : 333 Мбайт (5%)
    Заголовок : AVO ( А. Гаврилов)
    Язык : Russian
    ServiceKind/String : Complete Main
    Default : Нет
    Forced : Нет
    Аудио #4
    Идентификатор : 5
    Формат : AC-3
    Формат/Информация : Audio Coding 3
    Идентификатор кодека : A_AC3
    Продолжительность : 1 ч. 44 м.
    Вид битрейта : Постоянный
    Битрейт : 448 Кбит/сек
    Каналы : 6 каналов
    Расположение каналов : Front: L C R, Side: L R, LFE
    Частота : 48, 0 КГц
    Частота кадров : 31, 250 кадров/сек (1536 SPF)
    Битовая глубина : 16 бит
    Метод сжатия : С потерями
    Размер потока : 334 Мбайт (5%)
    Заголовок : AVO (С. Рябов)
    Язык : Russian
    ServiceKind/String : Complete Main
    Default : Нет
    Forced : Нет
    Аудио #5
    Идентификатор : 6
    Формат : AC-3
    Формат/Информация : Audio Coding 3
    Идентификатор кодека : A_AC3
    Продолжительность : 1 ч. 44 м.
    Вид битрейта : Постоянный
    Битрейт : 448 Кбит/сек
    Каналы : 6 каналов
    Расположение каналов : Front: L C R, Side: L R, LFE
    Частота : 48, 0 КГц
    Частота кадров : 31, 250 кадров/сек (1536 SPF)
    Битовая глубина : 16 бит
    Метод сжатия : С потерями
    Размер потока : 334 Мбайт (5%)
    Язык : English
    ServiceKind/String : Complete Main
    Default : Нет
    Forced : Нет
    Текст #1
    Идентификатор : 7
    Формат : UTF-8
    Идентификатор кодека : S_TEXT/UTF8
    Идентификатор кодека/Информация : UTF-8 Plain Text
    Продолжительность : 1 ч. 42 м.
    Битрейт : 69 бит/сек
    ElementCount : 874
    Размер потока : 52, 2 Кбайт (0%)
    Язык : Russian
    Default : Нет
    Forced : Нет
    Текст #2
    Идентификатор : 8
    Формат : UTF-8
    Идентификатор кодека : S_TEXT/UTF8
    Идентификатор кодека/Информация : UTF-8 Plain Text
    Продолжительность : 1 ч. 42 м.
    Битрейт : 36 бит/сек
    ElementCount : 755
    Размер потока : 27, 4 Кбайт (0%)
    Язык : English
    Default : Нет
    Forced : Нет
    Меню
    00: 00: 00.000 : en: Years Ago/Main Titles
    00: 05: 17.191 : en: The Simulation
    00: 09: 21.310 : en: Interrogating Mystique
    00: 12: 19.405 : en: A Cure for Mystique
    00: 17: 53.071 : en: The Rally
    00: 23: 09.137 : en: Transformation
    00: 30: 57.897 : en: Jean's Return
    00: 33: 57.493 : en: Rescue and Abandonment
    00: 38: 02.363 : en: Jean's True Power
    00: 43: 48.167 : en: Out of Control
    00: 50: 36.742 : en: Remembering the Professor
    00: 55: 37.083 : en: Magneto's Army
    00: 58: 02.854 : en: Saving Xavier's School
    01: 01: 13.878 : en: Public Threat
    01: 03: 56.749 : en: At Magneto's Camp
    01: 08: 16.801 : en: Raid
    01: 10: 40.569 : en: Final Stand
    01: 13: 21.313 : en: Assault on Alcatraz
    01: 19: 11.538 : en: Holding the Line
    01: 22: 10.091 : en: Protecting the Cure
    01: 25: 03.848 : en: One of Them
    01: 29: 41.751 : en: Because of Love
    01: 34: 25.701 : en: As They Should Be
    01: 36: 02.590 : en: Powerless/End Titles
    Доп. информация : -
    H.265/HEVC (High Efficiency Video Coding) - это новый стандарт кодирования видео.
    - Стандарт H.265/HEVC является логическим продолжением стандарта
    H.264/AVC (Advanced Video Coding), и характеризуется более эффективными
    алгоритмами сжатия, а также поддержкой высокого разрешения вплоть до 8K UHD
    (8192x4320). Первая версия стандарта H.265 была опубликована в начале 2013 года.
    - Рипы в фомате HEVC поддерживается не всеми аппаратными проигрывателями.
    - Для корректного воспроизведения может потребоваться обновление ПО.
    - Владельцам несовместимого железа просьба не беспокоить,
    есть альтернативные релизы.

    Скриншоты для ознакомления



    Все одноименные релизы в Клубе
    Время раздачи: с 8: 00 до 22: 00 (до появления первых 3-5 скачавших)


    Онлайн видео Люди Икс: Последняя битва



    Люди Икс: Последняя битва/X-Men: The Last Stand (2006) BDRip [H.265/1080p-LQ] [10-bit]
    Рейтинг →
     (голосов: 1, оценка 3/5, голосовать можно 1 раз )

    Другие торренты по теме:

  • Люди Икс: Последняя битва / X-Men: The Last Stand (2006) HDRip [H.264] [Hand Made Extended Cut]
  • Люди Икс: Последняя битва / X-Men: The Last Stand (2006) HDRip [H.264] [MP4|1920x800]
  • Люди Икс: Последняя битва / X-Men: The Last Stand (2006) HDRip [H.264] [MP4|1280x534]
  • Люди Икс: Последняя битва / X-Men: The Last Stand (2006) UHD BDRemux [H.265 / 2160p] [4K, HDR, 10-bit]


    • Комментарии (0):

      Информация

      Информация

        Посетители, находящиеся в группе Гости, не могут оставлять комментарии в данной новости.

        ↓ Меню




        ↓ Опрос

        Вы добавили сайт в закладки?
        Да
        Нет


        Top 10 за месяц (Фильмы)