.
Авторизация | Регистрация
Хочешь лучшие торренты? Добавь свой email!
Добавить

Торрент скачать бесплатно

  • support: webmaster@btracker.club
» » Люди Икс: Начало. Росомаха / X-Men Origins: Wolverine (2009) BDRip [H.265 / 1080p-LQ] [10-bit] торрент скачать бесплатно


    Люди Икс: Начало. Росомаха / X-Men Origins: Wolverine (2009) BDRip [H.265 / 1080p-LQ] [10-bit] торрент скачать бесплатно

    Опубликовал: fregat | Дата: 31-10-2018, 05:00 | .torrent скачали: 1

    Люди Икс: Начало. Росомаха / X-Men Origins: Wolverine (2009) BDRip [H.265 / 1080p-LQ] [10-bit]Производство: США, Великобритания
    Жанр: Фантастика, Боевик, Приключения, Триллер
    Режиссер: Гэвин Худ

    Актеры
    Хью Джекман, Лив Шрайбер, Дэнни Хьюстон, Уилл Ай Эм, Линн Коллинз

    Описание

    Фильм рассказывает о неистовом и романтичном прошлом Росомахи, его сложных отношениях с Виктором Кридом и о зловещей программе Оружие Х. При этом Росомаха встречается со многими мутантами, уже знакомыми и новыми, и узнает несколько легенд о мире Людей Икс.

    Возраст: 12+ (зрителям, достигшим 12 лет)
    Рейтинг MPAA: PG-13 (детям до 13 лет просмотр нежелателен)
    Релиз от: Cthulhu
    Продолжительность: 01: 47: 24
    Качество видео: BDRip
    Перевод: Дублированный (Лицензия)
    Субтитры: Русские (форсированные, полные), английские
    Видео: HEVC/H.265, 1920x818, ~5519 Kbps
    Аудио 1: AC3, 6 ch, 448 Kbps - Дублированный
    Аудио 2: AC3, 6 ch, 448 Kbps - AVO (Гаврилов)
    Аудио 3: AC3, 6 ch, 448 Kbps - AVO (Сербин)
    Аудио 4: AC3, 6 ch, 448 Kbps - Английский

    Общее
    Уникальный идентификатор : 231033880205470242680975221242883567400 (0xADCF81BE027FB0D016D246D0225D6F28)
    Полное имя : F: РАЗДАЧИX-Men Origins. Wolverine (2009) BDRip 1080p HEVC 10Bit_Cthulhu.mkv
    Формат : Matroska
    Версия формата : Version 4/Version 2
    Размер файла : 5, 49 Гбайт
    Продолжительность : 1 ч. 47 м.
    Общий поток : 7313 Кбит/сек
    Название фильма : X-Men Origins: Wolverine (2009)_rip_by_Cthulhu
    Дата кодирования : UTC 2018-06-12 11: 01: 43
    Программа кодирования : mkvmerge v24.0.0 ('Beyond The Pale') 64-bit
    Библиотека кодирования : libebml v1.3.6 + libmatroska v1.4.9
    Обложка : Yes
    Attachments : cover.jpg
    Видео
    Идентификатор : 1
    Формат : HEVC
    Формат/Информация : High Efficiency Video Coding
    Профиль формата : Main10@L4.1@High
    Идентификатор кодека : V_MPEGH/ISO/HEVC
    Продолжительность : 1 ч. 47 м.
    Битрейт : 5519 Кбит/сек
    Ширина : 1920 пикселей
    Высота : 818 пикселей
    Соотношение сторон : 2, 35: 1
    Режим частоты кадров : Постоянный
    Частота кадров : 23, 976 (24000/1001) кадра/сек
    Цветовое пространство : YUV
    Субдискретизация насыщенности : 4: 2: 0
    Битовая глубина : 10 бит
    Бит/(Пиксели*Кадры) : 0.147
    Размер потока : 4, 14 Гбайт (75%)
    Библиотека кодирования : x265 2.7+340-aa9102400f24: WindowsGCC 8.0.164 bit 10bit
    Настройки программы : cpuid=1049583/frame-threads=4/numa-pools=4/wpp/no-pmode/no-pme/no-psnr/no-ssim/log-level=2/input-csp=1/input-res=1920x818/interlace=0/total-frames=154509/level-idc=41/high-tier=1/uhd-bd=0/ref=5/no-allow-non-conformance/no-repeat-t_heads/annexb/no-aud/no-hrd/info/hash=0/no-temporal-layers/open-gop/min-keyint=23/keyint=240/gop-lookahead=0/bframes=8/b-adapt=2/b-pyramid/bframe-bias=0/rc-lookahead=40/lookahead-slices=4/scenecut=40/radl=0/no-intra-refresh/ctu=64/min-cu-size=8/rect/amp/max-tu-size=32/tu-inter-depth=3/tu-intra-depth=3/limit-tu=4/rdoq-level=1/dynamic-rd=0.00/no-ssim-rd/signhide/no-tskip/nr-intra=0/nr-inter=0/no-constrained-intra/no-strong-intra-smoothing/max-merge=3/limit-refs=2/limit-modes/me=3/subme=7/merange=57/temporal-mvp/weightp/weightb/no-analyze-src-pics/deblock=-3: -3/no-sao/no-sao-non-deblock/rd=4/no-early-skip/rskip/no-fast-intra/no-tskip-fast/no-cu-lossless/no-b-intra/no-splitrd-skip/rdpenalty=0/psy-rd=2.00/psy-rdoq=1.00/no-rd-refine/no-lossless/cbqpoffs=0/crqpoffs=0/rc=crf/crf=18.0/qcomp=0.60/qpstep=4/stats-write=0/stats-read=0/vbv-maxrate=50000/vbv-bufsize=50000/vbv-init=0.9/crf-max=0.0/crf-min=0.0/ipratio=1.40/pbratio=1.30/aq-mode=1/aq-strength=1.00/cutree/zone-count=0/no-strict-cbr/qg-size=32/no-rc-grain/qpmax=69/qpmin=0/no-const-vbv/sar=1/overscan=0/videoformat=5/range=0/colorprim=1/transfer=1/colormatrix=1/chromaloc=0/display-window=0/max-cll=0, 0/min-luma=0/max-luma=1023/log2-max-poc-lsb=8/vui-timing-info/vui-hrd-info/slices=1/no-opt-qp-pps/no-opt-ref-list-length-pps/no-multi-pass-opt-rps/scenecut-bias=0.05/no-opt-cu-delta-qp/no-aq-motion/no-hdr/no-hdr-opt/no-dhdr10-opt/no-idr-recovery-sei/analysis-reuse-level=5/scale-factor=0/refine-intra=0/refine-inter=0/refine-mv=0/no-limit-sao/ctu-info=0/no-lowpass-dct/refine-mv-type=0/copy-pic=1/max-ausize-factor=1.0/no-dynamic-refine/no-single-sei
    Язык : English
    Default : Да
    Forced : Нет
    Цветовой диапазон : Limited
    Основные цвета : BT.709
    Характеристики трансфера : BT.709
    Коэффициенты матрицы : BT.709
    Аудио #1
    Идентификатор : 2
    Формат : AC-3
    Формат/Информация : Audio Coding 3
    Идентификатор кодека : A_AC3
    Продолжительность : 1 ч. 47 м.
    Вид битрейта : Постоянный
    Битрейт : 448 Кбит/сек
    Каналы : 6 каналов
    Расположение каналов : Front: L C R, Side: L R, LFE
    Частота : 48, 0 КГц
    Частота кадров : 31, 250 кадров/сек (1536 SPF)
    Битовая глубина : 16 бит
    Метод сжатия : С потерями
    Размер потока : 344 Мбайт (6%)
    Заголовок : DUB
    Язык : Russian
    ServiceKind/String : Complete Main
    Default : Да
    Forced : Нет
    Аудио #2
    Идентификатор : 3
    Формат : AC-3
    Формат/Информация : Audio Coding 3
    Идентификатор кодека : A_AC3
    Продолжительность : 1 ч. 47 м.
    Вид битрейта : Постоянный
    Битрейт : 448 Кбит/сек
    Каналы : 6 каналов
    Расположение каналов : Front: L C R, Side: L R, LFE
    Частота : 48, 0 КГц
    Частота кадров : 31, 250 кадров/сек (1536 SPF)
    Битовая глубина : 16 бит
    Метод сжатия : С потерями
    Размер потока : 344 Мбайт (6%)
    Заголовок : AVO Гаврилов
    Язык : Russian
    ServiceKind/String : Complete Main
    Default : Нет
    Forced : Нет
    Аудио #3
    Идентификатор : 4
    Формат : AC-3
    Формат/Информация : Audio Coding 3
    Идентификатор кодека : A_AC3
    Продолжительность : 1 ч. 47 м.
    Вид битрейта : Постоянный
    Битрейт : 448 Кбит/сек
    Каналы : 6 каналов
    Расположение каналов : Front: L C R, Side: L R, LFE
    Частота : 48, 0 КГц
    Частота кадров : 31, 250 кадров/сек (1536 SPF)
    Битовая глубина : 16 бит
    Метод сжатия : С потерями
    Размер потока : 344 Мбайт (6%)
    Заголовок : AVO Сербин
    Язык : Russian
    ServiceKind/String : Complete Main
    Default : Нет
    Forced : Нет
    Аудио #4
    Идентификатор : 5
    Формат : AC-3
    Формат/Информация : Audio Coding 3
    Идентификатор кодека : A_AC3
    Продолжительность : 1 ч. 47 м.
    Вид битрейта : Постоянный
    Битрейт : 448 Кбит/сек
    Каналы : 6 каналов
    Расположение каналов : Front: L C R, Side: L R, LFE
    Частота : 48, 0 КГц
    Частота кадров : 31, 250 кадров/сек (1536 SPF)
    Битовая глубина : 16 бит
    Метод сжатия : С потерями
    Размер потока : 344 Мбайт (6%)
    Язык : English
    ServiceKind/String : Complete Main
    Default : Нет
    Forced : Нет
    Текст #1
    Идентификатор : 6
    Формат : UTF-8
    Идентификатор кодека : S_TEXT/UTF8
    Идентификатор кодека/Информация : UTF-8 Plain Text
    Продолжительность : 1 ч. 27 м.
    Битрейт : 0 бит/сек
    ElementCount : 14
    Размер потока : 471 байт (0%)
    Заголовок : rus forced
    Язык : Russian
    Default : Нет
    Forced : Нет
    Текст #2
    Идентификатор : 7
    Формат : UTF-8
    Идентификатор кодека : S_TEXT/UTF8
    Идентификатор кодека/Информация : UTF-8 Plain Text
    Продолжительность : 1 ч. 46 м.
    Битрейт : 49 бит/сек
    ElementCount : 859
    Размер потока : 38, 8 Кбайт (0%)
    Заголовок : rus full
    Язык : Russian
    Default : Нет
    Forced : Нет
    Текст #3
    Идентификатор : 8
    Формат : UTF-8
    Идентификатор кодека : S_TEXT/UTF8
    Идентификатор кодека/Информация : UTF-8 Plain Text
    Продолжительность : 1 ч. 40 м.
    Битрейт : 37 бит/сек
    ElementCount : 842
    Размер потока : 27, 5 Кбайт (0%)
    Язык : English
    Default : Нет
    Forced : Нет
    Меню
    00: 00: 00.000 : : My Son
    00: 03: 21.201 : : Main Titles/Invincible Warriors
    00: 07: 49.010 : : Recruitment
    00: 10: 28.419 : : Special Team
    00: 14: 09.807 : : Enough!
    00: 17: 50.110 : : New Life
    00: 19: 31.503 : : Show's Over
    00: 25: 55.136 : : Powers of Persuasion
    00: 28: 17.987 : : The Moon and Her Lover
    00: 32: 28.571 : : Out For Blood
    00: 37: 51.310 : : Weapon X
    00: 45: 03.367 : : Kindness to Strangers
    00: 49: 43.647 : : Blow Him to Bits
    00: 56: 28.468 : : Our Own Kind
    00: 59: 41.828 : : Boxing With the Blob
    01: 02: 17.650 : : Mutant Capture
    01: 06: 12.176 : : Gambit
    01: 09: 54.523 : : Confronting Victor
    01: 12: 54.703 : : Preemptive Action
    01: 16: 19.741 : : Played for a Fool
    01: 21: 29.467 : : Animal Rage
    01: 25: 57.777 : : Weapon XI
    01: 28: 55.121 : : Common Enemy
    01: 32: 06.812 : : Always Brothers
    01: 33: 37.069 : : Point Blank
    01: 37: 15.538 : : What's My Name?
    01: 40: 22.141 : : End Titles/Under Arrest
    01: 41: 26.121 : : End Titles/Back From the Dead
    Доп. информация : -
    H.265/HEVC (High Efficiency Video Coding) - это новый стандарт кодирования видео.
    - Стандарт H.265/HEVC является логическим продолжением стандарта
    H.264/AVC (Advanced Video Coding), и характеризуется более эффективными
    алгоритмами сжатия, а также поддержкой высокого разрешения вплоть до 8K UHD
    (8192x4320). Первая версия стандарта H.265 была опубликована в начале 2013 года.
    - Рипы в фомате HEVC поддерживается не всеми аппаратными проигрывателями.
    - Для корректного воспроизведения может потребоваться обновление ПО.
    - Владельцам несовместимого железа просьба не беспокоить,
    есть альтернативные релизы.

    Скриншоты для ознакомления



    Все одноименные релизы в Клубе
    Время раздачи: с 8: 00 до 22: 00 (до появления первых 3-5 скачавших)


    Онлайн видео Люди Икс: Начало. Росомаха



    Люди Икс: Начало. Росомаха/X-Men Origins: Wolverine (2009) BDRip [H.265/1080p-LQ] [10-bit]
    Рейтинг →
     (голосов: 1, оценка 5/5, голосовать можно 1 раз )

    Другие торренты по теме:

  • Люди Икс: Начало. Росомаха / X-Men Origins: Wolverine (2009) BDRip [H.264 / 1080p]
  • Люди Икс: Начало. Росомаха / X-Men Origins: Wolverine (2009) BDRip [H.264 / 720p]
  • Люди Икс: Начало. Росомаха / X-Men Origins: Wolverine (2009) HDRip [H.264] [Hand Made Extended Cut]
  • Люди Икс: Начало. Росомаха / X-Men Origins: Wolverine (2009) HDRip [H.264] [MP4|1280x546]
  • Люди Икс: Начало. Росомаха / X-Men Origins: Wolverine (2009) HDRip [H.264] [MP4|1920x818]


    • Комментарии (0):

      Информация

      Информация

        Посетители, находящиеся в группе Гости, не могут оставлять комментарии в данной новости.

        ↓ Меню




        ↓ Опрос

        Вы добавили сайт в закладки?
        Да
        Нет


        Top 10 за месяц (Фильмы)