.
Авторизация | Регистрация
Хочешь лучшие торренты? Добавь свой email!
Добавить

Торрент скачать бесплатно

  • support: webmaster@btracker.club
» » Сумерки. Сага. Затмение / The Twilight Saga: Eclipse (2010) BDRip [H.265 / 1080p-LQ] [10-bit] торрент скачать бесплатно


    Сумерки. Сага. Затмение / The Twilight Saga: Eclipse (2010) BDRip [H.265 / 1080p-LQ] [10-bit] торрент скачать бесплатно

    Опубликовал: fregat | Дата: 31-10-2018, 05:00 | .torrent скачали: 0

    Сумерки. Сага. Затмение / The Twilight Saga: Eclipse (2010) BDRip [H.265 / 1080p-LQ] [10-bit]Производство: США Summit Entertainment
    Жанр: Фэнтези, Драма, Мелодрама
    Режиссер: Дэвид Слэйд

    Актеры
    Ксавьер Сэмюэл, Кристен Стюарт, Роберт Паттинсон, Билли Бёрк, Джастин Чон, Анна Кендрик, Майкл Уэлш, Кристиан Серратос, Джексон Рэтбоун, Эшли Грин

    Описание

    Сиэтл охвачен чередой таинственных убийств, а обуреваемая жаждой мести вампирша продолжает поиски Беллы, снова оказавшейся в смертельной опасности. Кроме того, находясь в эпицентре всех событий, Белла вынуждена делать выбор между любовью к Эдварду и дружбой с Джейкобом, зная что ее решение может послужить толчком к возобновлению давнего противостояния между вампирами и оборотнями. Помимо всего прочего, ей предстоит принять еще одно важное решение: жизнь или смерть, ведь окончание средней школы уже не за горами.

    Возраст: 16+ (зрителям, достигшим 16 лет)
    Рейтинг MPAA: PG-13 (детям до 13 лет просмотр нежелателен)
    Дата выхода DVD/Blu-ray релиза: 9 декабря 2010, West Video
    Релиз от: M@kSIMus
    Продолжительность: 02: 03: 57
    Качество видео: BDRip
    Перевод: Дублированный (Лицензия)
    Субтитры: Русские (полные)
    Видео: HEVC/H.265, 1920x800, ~5333 Kbps
    Аудио: AC3, 6 ch, 448 Kbps | Русский
    Аудио: AC3, 6 ch, 448 Kbps | Английский

    Общее
    Уникальный идентификатор : 232467607806872164491218649847385287212 (0xAEE3A1F8772983F50D99AB8FF6E3EA2C)
    Полное имя : E: ФильмыTwilight.Сумерки. Сага. Затмение (2010) BDRip 1080p HEVC 10 bit.mkv
    Формат : Matroska
    Версия формата : Version 4
    Размер файла : 5, 40 Гбайт
    Продолжительность : 2 ч. 3 м.
    Общий поток : 6231 Кбит/сек
    Название фильма : Rip_by_M@kSIMus
    Дата кодирования : UTC 2018-10-27 12: 54: 50
    Программа кодирования : mkvmerge v28.0.0 ('Voice In My Head') 64-bit
    Библиотека кодирования : libebml v1.3.6 + libmatroska v1.4.9
    Обложка : Yes
    Attachments : cover4.jpg
    Видео
    Идентификатор : 1
    Формат : HEVC
    Формат/Информация : High Efficiency Video Coding
    Профиль формата : Main10@L4.1@High
    Идентификатор кодека : V_MPEGH/ISO/HEVC
    Продолжительность : 2 ч. 3 м.
    Битрейт : 5333 Кбит/сек
    Ширина : 1920 пикселей
    Высота : 800 пикселей
    Соотношение сторон : 2, 40: 1
    Режим частоты кадров : Постоянный
    Частота кадров : 23, 976 (24000/1001) кадра/сек
    Цветовое пространство : YUV
    Субдискретизация насыщенности : 4: 2: 0
    Битовая глубина : 10 бит
    Бит/(Пиксели*Кадры) : 0.145
    Размер потока : 4, 62 Гбайт (86%)
    Библиотека кодирования : x265 2.8+74-fd517ae68f93: WindowsGCC 7.3.064 bit 10bit
    Настройки программы : cpuid=1049583/frame-threads=5/numa-pools=4/wpp/no-pmode/no-pme/no-psnr/no-ssim/log-level=3/input-csp=1/input-res=1920x800/interlace=0/total-frames=0/level-idc=41/high-tier=1/uhd-bd=0/ref=5/allow-non-conformance/no-repeat-t_heads/annexb/no-aud/no-hrd/info/hash=0/no-temporal-layers/open-gop/min-keyint=24/keyint=240/gop-lookahead=0/bframes=8/b-adapt=2/b-pyramid/bframe-bias=0/rc-lookahead=40/lookahead-slices=5/scenecut=40/radl=0/no-intra-refresh/ctu=64/min-cu-size=8/no-rect/no-amp/max-tu-size=32/tu-inter-depth=1/tu-intra-depth=1/limit-tu=0/rdoq-level=0/dynamic-rd=0.00/no-ssim-rd/signhide/no-tskip/nr-intra=0/nr-inter=0/no-constrained-intra/strong-intra-smoothing/max-merge=2/limit-refs=3/no-limit-modes/me=3/subme=7/merange=57/temporal-mvp/weightp/no-weightb/no-analyze-src-pics/deblock=-3: -3/no-sao/no-sao-non-deblock/rd=3/no-early-skip/rskip/no-fast-intra/no-tskip-fast/no-cu-lossless/no-b-intra/no-splitrd-skip/rdpenalty=0/psy-rd=2.00/psy-rdoq=0.00/no-rd-refine/no-lossless/cbqpoffs=0/crqpoffs=0/rc=crf/crf=19.0/qcomp=0.60/qpstep=4/stats-write=0/stats-read=0/vbv-maxrate=50000/vbv-bufsize=50000/vbv-init=0.9/crf-max=0.0/crf-min=0.0/ipratio=1.40/pbratio=1.30/aq-mode=1/aq-strength=1.00/cutree/zone-count=0/no-strict-cbr/qg-size=32/no-rc-grain/qpmax=69/qpmin=0/no-const-vbv/sar=1/overscan=0/videoformat=5/range=0/colorprim=1/transfer=1/colormatrix=1/chromaloc=0/display-window=0/max-cll=0, 0/min-luma=0/max-luma=1023/log2-max-poc-lsb=8/vui-timing-info/vui-hrd-info/slices=1/no-opt-qp-pps/no-opt-ref-list-length-pps/no-multi-pass-opt-rps/scenecut-bias=0.05/no-opt-cu-delta-qp/no-aq-motion/no-hdr/no-hdr-opt/no-dhdr10-opt/no-idr-recovery-sei/analysis-reuse-level=5/scale-factor=0/refine-intra=0/refine-inter=0/refine-mv=0/no-limit-sao/ctu-info=0/no-lowpass-dct/refine-mv-type=0/copy-pic=1/max-ausize-factor=1.0/no-dynamic-refine/no-single-sei
    Язык : English
    Default : Да
    Forced : Нет
    Цветовой диапазон : Limited
    Основные цвета : BT.709
    Характеристики трансфера : BT.709
    Коэффициенты матрицы : BT.709
    Аудио #1
    Идентификатор : 2
    Формат : AC-3
    Формат/Информация : Audio Coding 3
    Коммерческое название : Dolby Digital
    Идентификатор кодека : A_AC3
    Продолжительность : 2 ч. 3 м.
    Вид битрейта : Постоянный
    Битрейт : 448 Кбит/сек
    Каналы : 6 каналов
    Channel layout : L R C LFE Ls Rs
    Частота : 48, 0 КГц
    Частота кадров : 31, 250 кадров/сек (1536 SPF)
    Битовая глубина : 16 бит
    Метод сжатия : С потерями
    Размер потока : 397 Мбайт (7%)
    Заголовок : Дубляж
    Язык : Russian
    ServiceKind/String : Complete Main
    Default : Да
    Forced : Нет
    Аудио #2
    Идентификатор : 3
    Формат : AC-3
    Формат/Информация : Audio Coding 3
    Коммерческое название : Dolby Digital
    Идентификатор кодека : A_AC3
    Продолжительность : 2 ч. 3 м.
    Вид битрейта : Постоянный
    Битрейт : 448 Кбит/сек
    Каналы : 6 каналов
    Channel layout : L R C LFE Ls Rs
    Частота : 48, 0 КГц
    Частота кадров : 31, 250 кадров/сек (1536 SPF)
    Битовая глубина : 16 бит
    Метод сжатия : С потерями
    Размер потока : 397 Мбайт (7%)
    Заголовок : Оригинал
    Язык : English
    ServiceKind/String : Complete Main
    Default : Нет
    Forced : Нет
    Текст
    Идентификатор : 4
    Формат : UTF-8
    Идентификатор кодека : S_TEXT/UTF8
    Идентификатор кодека/Информация : UTF-8 Plain Text
    Продолжительность : 1 ч. 56 м.
    Битрейт : 78 бит/сек
    ElementCount : 1134
    Размер потока : 66, 8 Кбайт (0%)
    Заголовок : Full
    Язык : Russian
    Default : Нет
    Forced : Нет
    Меню
    00: 00: 00.000 : : 1
    00: 08: 47.693 : : 2
    00: 17: 37.513 : : 3
    00: 25: 17.516 : : 4
    00: 30: 20.401 : : 5
    00: 36: 45.077 : : 6
    00: 43: 31.775 : : 7
    00: 50: 13.760 : : 8
    00: 55: 34.372 : : 9
    01: 00: 11.608 : : 10
    01: 06: 12.218 : : 11
    01: 13: 05.214 : : 12
    01: 19: 43.361 : : 13
    01: 25: 15.819 : : 14
    01: 31: 27.231 : : 15
    01: 35: 54.957 : : 16
    01: 43: 19.985 : : 17
    01: 51: 53.498 : : 18

    Скриншоты для ознакомления



    Все одноименные релизы в Клубе
    Время раздачи: 24/7 (круглосуточно)


    Онлайн видео Сумерки. Сага. Затмение



    Сумерки. Сага. Затмение/The Twilight Saga: Eclipse (2010) BDRip [H.265/1080p-LQ] [10-bit]
    Рейтинг →
     (голосов: 1, оценка 4/5, голосовать можно 1 раз )

    Другие торренты по теме:

  • Сумерки. Сага / The Twilight Saga (2008-2012) BDRip [720p] [Антология]
  • Сумерки. Сага. Затмение / The Twilight Saga: Eclipse (2010) BDRip [720p] [hand made 60fps] скачать через торрент бесплатно
  • Сумерки. Сага / The Twilight Saga (2008-2012) BDRip [1080p] [Антология]
  • Сумерки. Сага. Новолуние / The Twilight Saga: New Moon (2009) BDRip [H.265 / 1080p-LQ] [10-bit]
  • Сумерки. Сага. Рассвет - Часть 1 / The Twilight Saga: Breaking Dawn - Part 1 (2011) BDRip [H.265 / 1080p-LQ] [10-bit]
  • Сумерки. Сага. Рассвет - Часть 2 / The Twilight Saga: Breaking Dawn - Part 2 (2012) BDRip [H.265 / 1080p-LQ] [10-bit]
  • Сага о чудовище. Сумерки / Wildling (2018) WEB-DL [H.264 / 1080p-LQ]
  • Сага о чудовище. Сумерки / Wildling (2018) WEB-DL [1080p] ATV


    • Комментарии (0):

      Информация

      Информация

        Посетители, находящиеся в группе Гости, не могут оставлять комментарии в данной новости.

        ↓ Меню




        ↓ Опрос

        Вы добавили сайт в закладки?
        Да
        Нет


        Top 10 за месяц (Фильмы)