.
Авторизация | Регистрация
Хочешь лучшие торренты? Добавь свой email!
Добавить

Торрент скачать бесплатно

  • support: webmaster@btracker.club
» » Ключ от всех дверей / The Skeleton Key (2005) BDRip [H.264 / 1080p-LQ] торрент скачать бесплатно


    Ключ от всех дверей / The Skeleton Key (2005) BDRip [H.264 / 1080p-LQ] торрент скачать бесплатно

    Опубликовал: fregat | Дата: 31-10-2018, 05:00 | .torrent скачали: 0

    Ключ от всех дверей / The Skeleton Key (2005) BDRip [H.264 / 1080p-LQ]Производство: США, Германия/Universal Pictures, ShadowCatcher Entertainment, Double Feature Films
    Жанр: Ужасы, Триллер, Драма, Детектив
    Режиссер: Иэн Софтли

    Актеры
    Кейт Хадсон, Джина Роулендс, Джон Хёрт, Питер Сарсгаард, Джой Брайант, Максин Барнетт, Фэнлони Р. Харрис, Мэрион Цинсер, Денин Тайлер, Энн Далримпл

    Описание

    Бен Деверо недавно перенес инсульт, и теперь он не может двигаться и говорить. Его жена Вайолет нанимает молодую девушку Кэролайн в качестве сиделки для больного мужа. Супруги Деверо живут в огромном особняке, и поэтому Вайолет дает Кэролайн ключ, который открывает все двери в доме. Изучая дом, Кэролайн добирается до чердака, где обнаруживает секретную комнату, сплошь заставленную мистическими предметами. Хозяйка рассказывает девушке, что это вещи бывших хозяев, которые увлекались черной магией. Кэролайн решает, во что бы то ни стало разгадать все секреты, которые скрывает эта таинственная комната.

    Возраст: 16+ (зрителям, достигшим 16 лет)
    Рейтинг MPAA: PG-13 (детям до 13 лет просмотр нежелателен)
    Релиз от: SanLex
    Продолжительность: 01: 43: 57
    Качество видео: BDRip
    Перевод: Дублированный (BD EUR)
    Субтитры: Русские, английские
    Видео: AVC/H.264, 1920x816, ~5 122 kb/s
    Аудио #01: AC3, 6 ch, 448 Kbps - Русский
    Аудио #02: AC3, 6 ch, 448 Kbps - Английский

    General
    Unique ID : 197263215083620528482522325837370531811 (0x94678366AEC8E089B5C9B48421C29FE3)
    Complete name : Ключ от всех дверей - The Skeleton Key (2005) BDRip 1080p.mkv
    Format : Matroska
    Format version : Version 4
    File size : 4.37 GiB
    Duration : 1 h 43 min
    Overall bit rate : 6 020 kb/s
    Encoded date : UTC 2018-10-27 16: 02: 01
    Writing application : mkvmerge v8.2.0 ('World of Adventure') 64bit
    Writing library : libebml v1.3.1 + libmatroska v1.4.2
    Video
    ID : 1
    Format : AVC
    Format/Info : Advanced Video Codec
    Format profile : High@L4.1
    Format settings : CABAC/4 Ref Frames
    Format settings, CABAC : Yes
    Format settings, RefFrames : 4 frames
    Codec ID : V_MPEG4/ISO/AVC
    Duration : 1 h 43 min
    Bit rate : 5 122 kb/s
    Width : 1 920 pixels
    Height : 816 pixels
    Display aspect ratio : 2.35: 1
    Frame rate mode : Constant
    Frame rate : 23.976 (24000/1001) FPS
    Color space : YUV
    Chroma subsampling : 4: 2: 0
    Bit depth : 8 bits
    Scan type : Progressive
    Bits/(Pixel*Frame) : 0.136
    Stream size : 3.72 GiB (85%)
    Title : Ключ от всех дверей/The Skeleton Key (2005)
    Writing library : x264 core 152 r2851 ba24899
    Encoding settings : cabac=1/ref=4/deblock=1: -1: -1/analyse=0x3: 0x133/me=umh/subme=11/psy=1/psy_rd=1.00: 0.10/mixed_ref=1/me_range=32/chroma_me=1/trellis=2/8x8dct=1/cqm=0/deadzone=21, 11/fast_pskip=0/chroma_qp_offset=-3/threads=6/lookahead_threads=1/sliced_threads=0/nr=0/decimate=1/interlaced=0/bluray_compat=0/constrained_intra=0/bframes=8/b_pyramid=2/b_adapt=2/b_bias=0/direct=3/weightb=1/open_gop=0/weightp=2/keyint=250/keyint_min=23/scenecut=40/intra_refresh=0/rc=2pass/mbtree=0/bitrate=5122/ratetol=1.0/qcomp=0.60/qpmin=0/qpmax=69/qpstep=4/cplxblur=20.0/qblur=0.5/ip_ratio=1.40/pb_ratio=1.30/aq=1: 1.00
    Language : English
    Default : Yes
    Forced : No
    Audio #1
    ID : 2
    Format : AC-3
    Format/Info : Audio Coding 3
    Commercial name : Dolby Digital
    Codec ID : A_AC3
    Duration : 1 h 43 min
    Bit rate mode : Constant
    Bit rate : 448 kb/s
    Channel(s) : 6 channels
    Channel layout : L R C LFE Ls Rs
    Sampling rate : 48.0 kHz
    Frame rate : 31.250 FPS (1536 SPF)
    Bit depth : 16 bits
    Compression mode : Lossy
    Stream size : 333 MiB (7%)
    Language : Russian
    Service kind : Complete Main
    Default : Yes
    Forced : No
    Audio #2
    ID : 3
    Format : AC-3
    Format/Info : Audio Coding 3
    Commercial name : Dolby Digital
    Codec ID : A_AC3
    Duration : 1 h 43 min
    Bit rate mode : Constant
    Bit rate : 448 kb/s
    Channel(s) : 6 channels
    Channel layout : L R C LFE Ls Rs
    Sampling rate : 48.0 kHz
    Frame rate : 31.250 FPS (1536 SPF)
    Bit depth : 16 bits
    Compression mode : Lossy
    Stream size : 333 MiB (7%)
    Language : English
    Service kind : Complete Main
    Default : No
    Forced : No
    Text #1
    ID : 4
    Format : UTF-8
    Codec ID : S_TEXT/UTF8
    Codec ID/Info : UTF-8 Plain Text
    Duration : 1 h 1 min
    Bit rate : 2 b/s
    Count of elements : 23
    Stream size : 1.05 KiB (0%)
    Language : Russian
    Default : Yes
    Forced : Yes
    Text #2
    ID : 5
    Format : UTF-8
    Codec ID : S_TEXT/UTF8
    Codec ID/Info : UTF-8 Plain Text
    Duration : 1 h 39 min
    Bit rate : 74 b/s
    Count of elements : 1030
    Stream size : 54.2 KiB (0%)
    Language : Russian
    Default : No
    Forced : No
    Text #3
    ID : 6
    Format : UTF-8
    Codec ID : S_TEXT/UTF8
    Codec ID/Info : UTF-8 Plain Text
    Duration : 1 h 37 min
    Bit rate : 43 b/s
    Count of elements : 1008
    Stream size : 31.1 KiB (0%)
    Language : English
    Default : No
    Forced : No
    Menu
    00: 00: 00.000 : : Chapter 1
    00: 04: 58.256 : : Chapter 2
    00: 13: 41.487 : : Chapter 3
    00: 19: 30.836 : : Chapter 4
    00: 24: 03.483 : : Chapter 5
    00: 28: 20.323 : : Chapter 6
    00: 32: 04.547 : : Chapter 7
    00: 37: 29.956 : : Chapter 8
    00: 41: 48.339 : : Chapter 9
    00: 48: 53.889 : : Chapter 10
    00: 55: 17.564 : : Chapter 11
    01: 00: 18.072 : : Chapter 12
    01: 02: 09.767 : : Chapter 13
    01: 07: 32.131 : : Chapter 14
    01: 14: 23.542 : : Chapter 15
    01: 18: 47.931 : : Chapter 16
    01: 22: 10.926 : : Chapter 17
    01: 32: 43.558 : : Chapter 18
    01: 35: 29.056 : : Chapter 19
    01: 37: 29.635 : : Chapter 20
    01: 43: 56.980 : : Chapter 21

    x264 info: frame I: 964 Avg QP: 13.48 size: 131771
    x264 info: frame P: 36925 Avg QP: 14.57 size: 53455
    x264 info: frame B: 111654 Avg QP: 16.60 size: 16752

    Скриншоты для ознакомления



    Все одноименные релизы в Клубе
    Время раздачи: 24/7 (до появления первых 3-5 скачавших)


    Онлайн видео Ключ от всех дверей



    Ключ от всех дверей/The Skeleton Key (2005) BDRip [H.264/1080p-LQ]
    Рейтинг →
     (голосов: 1, оценка 3/5, голосовать можно 1 раз )

    Другие торренты по теме:

  • Ключ от всех дверей / The Skeleton Key (2005) HDRip [AVO]


    • Комментарии (0):

      Информация

      Информация

        Посетители, находящиеся в группе Гости, не могут оставлять комментарии в данной новости.

        ↓ Меню




        ↓ Опрос

        Вы добавили сайт в закладки?
        Да
        Нет


        Top 10 за месяц (Фильмы)