.
Авторизация | Регистрация
Хочешь лучшие торренты? Добавь свой email!
Добавить

Торрент скачать бесплатно

  • support: webmaster@btracker.club
» » Полтора шпиона / Central Intelligence (2016) BDRip [H.265 / 1080p-LQ] [10-bit] торрент скачать бесплатно


    Полтора шпиона / Central Intelligence (2016) BDRip [H.265 / 1080p-LQ] [10-bit] торрент скачать бесплатно

    Опубликовал: fregat | Дата: 31-10-2018, 05:00 | .torrent скачали: 0

    Полтора шпиона / Central Intelligence (2016) BDRip [H.265 / 1080p-LQ] [10-bit]Производство: США/Universal Pictures, New Line Cinema
    Жанр: Боевик, Комедия, Криминал
    Режиссер: Роусон Маршалл Тёрбер
    Продюсер: Майкл Фоттрел, Пол Янг, Бо Бауман

    Актеры
    Дуэйн Джонсон, Кевин Харт, Эми Райан, Даниэль Николет, Джейсон Бейтман, Аарон Пол, Райан Хансен, Тим Гриффин, Тимоти Джон Смит, Сион Келепи

    Описание

    Боб Стоун, бывший любитель пончиков, над которым насмехалась вся школа, превратился в похожего на скалу супершпиона и вспомнил о своем старинном друге. Кельвин трудится бухгалтером и тоскует о днях былой славы. Боб вернет его к жизни — погони, перестрелки, спецзадания — парочка школьных приятелей отправляется спасать мир.

    Возраст: 16+ (зрителям, достигшим 16 лет)
    Рейтинг MPAA: PG-13 (детям до 13 лет просмотр нежелателен)
    Релиз от: DoSam
    Продолжительность: 01: 47: 37
    Качество видео: BDRip
    Перевод: Дублированный
    Субтитры: Русские (форсированные, полные)
    Видео: HEVC/H.265, 1920x800, ~5 834 Kbps
    Аудио: DTS, 6 ch, 768 Kbps (русский) - Дубляж

    General
    Unique ID : 243865807094330266405231876044152734102 (0xB776D89563E2977E73213AF239198196)
    Format : Matroska
    Format version : Version 4
    File size : 4.97 GiB
    Duration : 1 h 47 min
    Overall bit rate : 6 605 kb/s
    Movie name : Central.Intelligence.2016 BDRip_DoSam
    Encoded date : UTC 2018-10-27 09: 57: 08
    Writing application : mkvmerge v28.2.0 ('The Awakening') 64-bit
    Writing library : libebml v1.3.6 + libmatroska v1.4.9
    Video
    ID : 1
    Format : HEVC
    Format/Info : High Efficiency Video Coding
    Format profile : Main10@L4.1@High
    Codec ID : V_MPEGH/ISO/HEVC
    Duration : 1 h 47 min
    Bit rate : 5 834 kb/s
    Width : 1 920 pixels
    Height : 800 pixels
    Display aspect ratio : 2.40: 1
    Frame rate mode : Constant
    Frame rate : 23.976 (24000/1001) FPS
    Color space : YUV
    Chroma subsampling : 4: 2: 0
    Bit depth : 10 bits
    Bits/(Pixel*Frame) : 0.158
    Stream size : 4.39 GiB (88%)
    Default : Yes
    Forced : No
    Color range : Limited
    Color primaries : BT.709
    Transfer characteristics : BT.709
    Matrix coefficients : BT.709
    Audio
    ID : 2
    Format : DTS
    Format/Info : Digital Theater Systems
    Codec ID : A_DTS
    Duration : 1 h 47 min
    Bit rate mode : Constant
    Bit rate : 768 kb/s
    Channel(s) : 6 channels
    Channel layout : C L R Ls Rs LFE
    Sampling rate : 48.0 kHz
    Frame rate : 93.750 FPS (512 SPF)
    Bit depth : 24 bits
    Compression mode : Lossy
    Stream size : 591 MiB (12%)
    Title : Dub - DTS 5.1 768 kb/s
    Language : Russian
    Default : Yes
    Forced : No
    Text #1
    ID : 3
    Format : UTF-8
    Codec ID : S_TEXT/UTF8
    Codec ID/Info : UTF-8 Plain Text
    Duration : 1 h 38 min
    Bit rate : 4 b/s
    Count of elements : 62
    Stream size : 3.08 KiB (0%)
    Title : Forced
    Language : Russian
    Default : Yes
    Forced : Yes
    Text #2
    ID : 4
    Format : UTF-8
    Codec ID : S_TEXT/UTF8
    Codec ID/Info : UTF-8 Plain Text
    Duration : 1 h 46 min
    Bit rate : 138 b/s
    Count of elements : 2048
    Stream size : 108 KiB (0%)
    Title : Full
    Language : Russian
    Default : No
    Forced : No
    Menu
    00: 00: 00.000 : en: 00: 00: 00.000
    00: 09: 32.238 : en: 00: 09: 32.238
    00: 21: 47.848 : en: 00: 21: 47.848
    00: 32: 26.861 : en: 00: 32: 26.861
    00: 47: 37.104 : en: 00: 47: 37.104
    00: 57: 28.528 : en: 00: 57: 28.528
    01: 03: 15.750 : en: 01: 03: 15.750
    01: 17: 23.222 : en: 01: 17: 23.222
    01: 26: 11.541 : en: 01: 26: 11.541
    01: 36: 29.992 : en: 01: 36: 29.992
    01: 48: 21.411 : en: 01: 48: 21.411

    Скриншоты для ознакомления



    Все одноименные релизы в Клубе
    Время раздачи: с 10: 00 до 23: 30 (до появления первых 3-5 скачавших)


    Онлайн видео Полтора шпиона



    Полтора шпиона/Central Intelligence (2016) BDRip [H.265/1080p-LQ] [10-bit]
    Рейтинг →
     (голосов: 1, оценка 4/5, голосовать можно 1 раз )

    Другие торренты по теме:

  • Полтора шпиона / Central Intelligence (2016) CamRip
  • Полтора шпиона / Central Intelligence (2016)
  • Theodore Shapiro and Ludwig Goransson - Central Intelligence / Полтора шпиона (Original Motion Picture Soundtrack) (2016) [FLAC|Lossless|WEB-DL|tracks]<Soundtrack>
  • Theodore Shapiro and Ludwig Goransson - Central Intelligence / Полтора шпиона (Original Motion Picture Soundtrack) (2016) [MP3|320 кб / с]<Soundtrack>
  • Полтора шпиона / Central Intelligence (2016) CamRip
  • Полтора шпиона / Central Intelligence (2016) WEBRip [H.264 / 1080p-LQ] [Line]
  • Полтора шпиона / Central Intelligence (2016) WEBRip [Line]
  • Полтора шпиона / Central Intelligence (2016) WEB-DL [H.264 / 1080p-LQ]


    • Комментарии (0):

      Информация

      Информация

        Посетители, находящиеся в группе Гости, не могут оставлять комментарии в данной новости.

        ↓ Меню




        ↓ Опрос

        Вы добавили сайт в закладки?
        Да
        Нет


        Top 10 за месяц (Фильмы)