.
Авторизация | Регистрация
Хочешь лучшие торренты? Добавь свой email!
Добавить

Торрент скачать бесплатно

  • support: webmaster@btracker.club
» » Росомаха: Бессмертный / The Wolverine (2013) BDRip [H.265 / 1080p-LQ] [10-bit] [Extended Cut] торрент скачать бесплатно


    Росомаха: Бессмертный / The Wolverine (2013) BDRip [H.265 / 1080p-LQ] [10-bit] [Extended Cut] торрент скачать бесплатно

    Опубликовал: fregat | Дата: 31-10-2018, 05:00 | .torrent скачали: 1

    Росомаха: Бессмертный / The Wolverine (2013) BDRip [H.265 / 1080p-LQ] [10-bit] [Extended Cut]Производство: США, Великобритания, Австралия, Япония
    Жанр: Фантастика, Боевик, Приключения, Триллер
    Режиссер: Джеймс Мэнголд

    Актеры
    Хью Джекман, Тао Окамото, Рила Фукусима, Светлана Ходченкова, Уилл Юн Ли

    Описание

    Новая глава приключений Росомахи развернётся в Японии, где Логану предстоит выяснить, что острее — когти Росомахи или меч Серебряного Самурая.

    Возраст: 12+ (зрителям, достигшим 12 лет)
    Рейтинг MPAA: PG-13 (детям до 13 лет просмотр нежелателен)
    Релиз от: Cthulhu
    Продолжительность: 02: 18: 14
    Качество видео: BDRip
    Перевод: Дублированный
    Субтитры: Русские (форсированные, полные), английские
    Видео: HEVC/H.265, 1920x798, ~5947 Kbps
    Аудио 1: AC3, 6 ch, 448 Kbps - Дублированный
    Аудио 2: AC3, 6 ch, 448 Kbps - Английский

    Общее
    Уникальный идентификатор : 246628640942078475234930104523093607413 (0xB98AF2CF26E5318CBD101B8A994283F5)
    Полное имя : F: РАЗДАЧИThe Wolverine Extended Cut (2013) BDRip 1080p HEVC 10Bit.mkv
    Формат : Matroska
    Версия формата : Version 4/Version 2
    Размер файла : 6, 61 Гбайт
    Продолжительность : 2 ч. 18 м.
    Общий поток : 6844 Кбит/сек
    Название фильма : rip_by_Cthulhu
    Дата кодирования : UTC 2018-01-12 20: 01: 17
    Программа кодирования : mkvmerge v18.0.0 ('Apricity') 64-bit
    Библиотека кодирования : libebml v1.3.5 + libmatroska v1.4.8
    Обложка : Yes
    Attachments : cover.jpg
    Видео
    Идентификатор : 1
    Формат : HEVC
    Формат/Информация : High Efficiency Video Coding
    Профиль формата : Main 10@L4@Main
    Идентификатор кодека : V_MPEGH/ISO/HEVC
    Продолжительность : 2 ч. 18 м.
    Битрейт : 5947 Кбит/сек
    Ширина : 1920 пикселей
    Высота : 798 пикселей
    Соотношение сторон : 2, 40: 1
    Режим частоты кадров : Постоянный
    Частота кадров : 23, 976 (24000/1001) кадра/сек
    Цветовое пространство : YUV
    Субдискретизация насыщенности : 4: 2: 0
    Битовая глубина : 10 бит
    Бит/(Пиксели*Кадры) : 0.162
    Размер потока : 5, 74 Гбайт (87%)
    Библиотека кодирования : x265 2.6+22-ff02513b92c0: WindowsGCC 7.1.064 bit 10bit
    Настройки программы : cpuid=1050111/frame-threads=5/numa-pools=4/wpp/no-pmode/no-pme/no-psnr/no-ssim/log-level=3/input-csp=1/input-res=1920x798/interlace=0/total-frames=0/level-idc=0/high-tier=1/uhd-bd=0/ref=5/allow-non-conformance/no-repeat-t_heads/annexb/no-aud/no-hrd/info/hash=0/no-temporal-layers/open-gop/min-keyint=24/keyint=240/gop-lookahead=0/bframes=8/b-adapt=2/b-pyramid/bframe-bias=0/rc-lookahead=40/lookahead-slices=5/scenecut=40/radl=0/no-intra-refresh/ctu=64/min-cu-size=8/no-rect/no-amp/max-tu-size=32/tu-inter-depth=2/tu-intra-depth=2/limit-tu=0/rdoq-level=1/dynamic-rd=0.00/no-ssim-rd/signhide/no-tskip/nr-intra=0/nr-inter=0/no-constrained-intra/no-strong-intra-smoothing/max-merge=3/limit-refs=3/no-limit-modes/me=2/subme=6/merange=57/temporal-mvp/weightp/weightb/no-analyze-src-pics/deblock=-4: -4/no-sao/no-sao-non-deblock/rd=4/no-early-skip/rskip/no-fast-intra/no-tskip-fast/no-cu-lossless/no-b-intra/no-splitrd-skip/rdpenalty=0/psy-rd=2.00/psy-rdoq=0.00/no-rd-refine/no-lossless/cbqpoffs=0/crqpoffs=0/rc=crf/crf=17.0/qcomp=0.60/qpstep=4/stats-write=0/stats-read=0/ipratio=1.20/pbratio=1.10/aq-mode=2/aq-strength=1.00/cutree/zone-count=0/no-strict-cbr/qg-size=32/no-rc-grain/qpmax=69/qpmin=0/no-const-vbv/sar=1/overscan=0/videoformat=5/range=0/colorprim=2/transfer=2/colormatrix=2/chromaloc=0/display-window=0/max-cll=0, 0/min-luma=0/max-luma=1023/log2-max-poc-lsb=8/vui-timing-info/vui-hrd-info/slices=1/no-opt-qp-pps/no-opt-ref-list-length-pps/no-multi-pass-opt-rps/scenecut-bias=0.05/no-opt-cu-delta-qp/no-aq-motion/no-hdr/no-hdr-opt/no-dhdr10-opt/analysis-save=(null)/analysis-load=(null)/analysis-reuse-level=5/scale-factor=0/refine-intra=0/refine-inter=0/refine-mv=0/no-limit-sao/ctu-info=0/no-lowpass-dct/refine-mv-type=0/copy-pic=1
    Язык : English
    Default : Да
    Forced : Нет
    Цветовой диапазон : Limited
    Аудио #1
    Идентификатор : 2
    Формат : AC-3
    Формат/Информация : Audio Coding 3
    Идентификатор кодека : A_AC3
    Продолжительность : 2 ч. 18 м.
    Вид битрейта : Постоянный
    Битрейт : 448 Кбит/сек
    Каналы : 6 каналов
    Расположение каналов : Front: L C R, Side: L R, LFE
    Частота : 48, 0 КГц
    Частота кадров : 31, 250 кадров/сек (1536 SPF)
    Битовая глубина : 16 бит
    Метод сжатия : С потерями
    Размер потока : 442 Мбайт (7%)
    Язык : Russian
    ServiceKind/String : Complete Main
    Default : Да
    Forced : Нет
    Аудио #2
    Идентификатор : 3
    Формат : AC-3
    Формат/Информация : Audio Coding 3
    Идентификатор кодека : A_AC3
    Продолжительность : 2 ч. 18 м.
    Вид битрейта : Постоянный
    Битрейт : 448 Кбит/сек
    Каналы : 6 каналов
    Расположение каналов : Front: L C R, Side: L R, LFE
    Частота : 48, 0 КГц
    Частота кадров : 31, 250 кадров/сек (1536 SPF)
    Битовая глубина : 16 бит
    Метод сжатия : С потерями
    Размер потока : 442 Мбайт (7%)
    Язык : English
    ServiceKind/String : Complete Main
    Default : Нет
    Forced : Нет
    Текст #1
    Идентификатор : 4
    Формат : UTF-8
    Идентификатор кодека : S_TEXT/UTF8
    Идентификатор кодека/Информация : UTF-8 Plain Text
    Продолжительность : 2 ч. 6 м.
    Битрейт : 8 бит/сек
    ElementCount : 188
    Размер потока : 7, 57 Кбайт (0%)
    Заголовок : rus forced
    Язык : Russian
    Default : Да
    Forced : Да
    Текст #2
    Идентификатор : 5
    Формат : UTF-8
    Идентификатор кодека : S_TEXT/UTF8
    Идентификатор кодека/Информация : UTF-8 Plain Text
    Продолжительность : 2 ч. 16 м.
    Битрейт : 43 бит/сек
    ElementCount : 1034
    Размер потока : 43, 4 Кбайт (0%)
    Заголовок : rus full
    Язык : Russian
    Default : Нет
    Forced : Нет
    Текст #3
    Идентификатор : 6
    Формат : UTF-8
    Идентификатор кодека : S_TEXT/UTF8
    Идентификатор кодека/Информация : UTF-8 Plain Text
    Продолжительность : 1 ч. 43 м.
    Битрейт : 3 бит/сек
    ElementCount : 116
    Размер потока : 2, 64 Кбайт (0%)
    Язык : English
    Default : Нет
    Forced : Нет
    Меню
    00: 00: 00.000 : : 00: 00: 00.000
    00: 05: 03.720 : : 00: 05: 03.720
    00: 07: 39.793 : : 00: 07: 39.793
    00: 08: 40.562 : : 00: 08: 40.562
    00: 10: 24.374 : : 00: 10: 24.374
    00: 13: 55.668 : : 00: 13: 55.668
    00: 16: 48.174 : : 00: 16: 48.174
    00: 20: 32.648 : : 00: 20: 32.648
    00: 23: 36.498 : : 00: 23: 36.498
    00: 29: 13.585 : : 00: 29: 13.585
    00: 33: 42.771 : : 00: 33: 42.771
    00: 35: 14.779 : : 00: 35: 14.779
    00: 38: 36.522 : : 00: 38: 36.522
    00: 43: 04.957 : : 00: 43: 04.957
    00: 47: 55.080 : : 00: 47: 55.080
    00: 49: 31.844 : : 00: 49: 31.844
    00: 52: 23.098 : : 00: 52: 23.098
    00: 59: 32.318 : : 00: 59: 32.318
    01: 01: 31.354 : : 01: 01: 31.354
    01: 07: 00.516 : : 01: 07: 00.516
    01: 13: 10.261 : : 01: 13: 10.261
    01: 18: 52.227 : : 01: 18: 52.227
    01: 23: 40.473 : : 01: 23: 40.473
    01: 26: 47.160 : : 01: 26: 47.160
    01: 29: 50.927 : : 01: 29: 50.927
    01: 35: 19.380 : : 01: 35: 19.380
    01: 38: 28.194 : : 01: 38: 28.194
    01: 41: 43.639 : : 01: 41: 43.639
    01: 48: 33.006 : : 01: 48: 33.006
    01: 52: 05.969 : : 01: 52: 05.969
    01: 54: 56.264 : : 01: 54: 56.264
    01: 58: 03.493 : : 01: 58: 03.493
    02: 03: 01.999 : : 02: 03: 01.999
    02: 04: 57.406 : : 02: 04: 57.406
    02: 07: 46.700 : : 02: 07: 46.700
    02: 09: 17.374 : : 02: 09: 17.374
    Доп. информация : -
    H.265/HEVC (High Efficiency Video Coding) - это новый стандарт кодирования видео.
    - Стандарт H.265/HEVC является логическим продолжением стандарта
    H.264/AVC (Advanced Video Coding), и характеризуется более эффективными
    алгоритмами сжатия, а также поддержкой высокого разрешения вплоть до 8K UHD
    (8192x4320). Первая версия стандарта H.265 была опубликована в начале 2013 года.
    - Рипы в фомате HEVC поддерживается не всеми аппаратными проигрывателями.
    - Для корректного воспроизведения может потребоваться обновление ПО.
    - Владельцам несовместимого железа просьба не беспокоить,
    есть альтернативные релизы.

    Скриншоты для ознакомления



    Все одноименные релизы в Клубе
    Время раздачи: с 8: 00 до 22: 00 (до появления первых 3-5 скачавших)


    Онлайн видео Росомаха: Бессмертный



    Росомаха: Бессмертный/The Wolverine (2013) BDRip [H.265/1080p-LQ] [10-bit] [Extended Cut]
    Рейтинг →
     (голосов: 1, оценка 5/5, голосовать можно 1 раз )

    Другие торренты по теме:

  • Росомаха: Бессмертный / The Wolverine (2013) BDRip [H.264 / 720p] [Extended Cut]
  • Росомаха: Бессмертный / The Wolverine (2013) BDRip [H.264 / 1080p] [Extended Cut]
  • Росомаха: Бессмертный / The Wolverine (2013) HDRip [Extended Cut] [AVO]
  • Росомаха: Бессмертный / The Wolverine (2013) HDRip [Extended Cut] [AVO]
  • Росомаха: Бессмертный / The Wolverine (2013) HDRip [H.264] [MP4|1920x798] [Extended Cut]
  • Росомаха: Бессмертный / The Wolverine (2013) HDRip [H.264] [MP4|1280x532] [Extended Cut]


    • Комментарии (0):

      Информация

      Информация

        Посетители, находящиеся в группе Гости, не могут оставлять комментарии в данной новости.

        ↓ Меню




        ↓ Опрос

        Вы добавили сайт в закладки?
        Да
        Нет


        Top 10 за месяц (Фильмы)