.
Авторизация | Регистрация
Хочешь лучшие торренты? Добавь свой email!
Добавить

Торрент скачать бесплатно

  • support: webmaster@btracker.club
» » Люди Икс: Дни минувшего будущего / X-Men: Days of Future Past (2014) BDRip [H.265 / 1080p-LQ] [10-bit] [Rogue Cut] торрент скачать бесплатно


    Люди Икс: Дни минувшего будущего / X-Men: Days of Future Past (2014) BDRip [H.265 / 1080p-LQ] [10-bit] [Rogue Cut] торрент скачать бесплатно

    Опубликовал: fregat | Дата: 31-10-2018, 05:00 | .torrent скачали: 1

    Люди Икс: Дни минувшего будущего / X-Men: Days of Future Past (2014) BDRip [H.265 / 1080p-LQ] [10-bit] [Rogue Cut]Производство: США, Великобритания, Канада
    Жанр: Фантастика, Боевик, Триллер, Приключения
    Режиссер: Брайан Сингер

    Актеры
    Хью Джекман, Иэн МакКеллен, Патрик Стюарт, Холли Берри, Майкл Фассбендер, Джеймс МакЭвой

    Описание

    В недалёком будущем мутанты близки к истреблению роботами-охотниками на мутантов Стражами. Единственная надежда для мутантов выжить — предотвратить череду роковых событий, приведших к появлению Стражей.

    Возраст: 12+ (зрителям, достигшим 12 лет)
    Рейтинг MPAA: PG-13 (детям до 13 лет просмотр нежелателен)
    Релиз от: Cthulhu
    Продолжительность: 02: 28: 45
    Качество видео: BDRip
    Перевод: Дублированный
    Субтитры: Русские (форсированные, полные), английские
    Видео: HEVC/H.265, 1920x800, ~5563 Kbps
    Аудио 1: AC3, 6 ch, 384 Kbps - Дублированный
    Аудио 2: AC3, 6 ch, 384 Kbps - AVO (Живов)
    Аудио 3: AC3, 6 ch, 384 Kbps - Английский

    Общее
    Уникальный идентификатор : 90710912917508132393535855432583478155 (0x443E494E0A5CBA4C2707CF168D1DFB8B)
    Полное имя : F: РАЗДАЧИX-Men. Days of Future Past Rogue Cut (2014) BDRip 1080p HEVC 10Bit.mkv
    Формат : Matroska
    Версия формата : Version 4/Version 2
    Размер файла : 6, 98 Гбайт
    Продолжительность : 2 ч. 28 м.
    Общий поток : 6717 Кбит/сек
    Название фильма : X-Men: Days of Future Past Rogue Cut (2014)_rip_by_Cthulhu
    Дата кодирования : UTC 2018-02-26 14: 24: 32
    Программа кодирования : mkvmerge v21.0.0 ('Tardigrades Will Inherit The Earth') 64-bit
    Библиотека кодирования : libebml v1.3.5 + libmatroska v1.4.8
    Обложка : Yes
    Attachments : cover1.jpg
    Видео
    Идентификатор : 1
    Формат : HEVC
    Формат/Информация : High Efficiency Video Coding
    Профиль формата : Main 10@L5@High
    Идентификатор кодека : V_MPEGH/ISO/HEVC
    Продолжительность : 2 ч. 28 м.
    Битрейт : 5563 Кбит/сек
    Ширина : 1920 пикселей
    Высота : 800 пикселей
    Соотношение сторон : 2, 40: 1
    Режим частоты кадров : Постоянный
    Частота кадров : 23, 976 (24000/1001) кадра/сек
    Цветовое пространство : YUV
    Субдискретизация насыщенности : 4: 2: 0
    Битовая глубина : 10 бит
    Бит/(Пиксели*Кадры) : 0.151
    Размер потока : 5, 78 Гбайт (83%)
    Библиотека кодирования : x265 2.6+40-36ab263cc891: WindowsGCC 7.3.064 bit 10bit
    Настройки программы : cpuid=1050111/frame-threads=5/numa-pools=4/wpp/no-pmode/no-pme/no-psnr/no-ssim/log-level=3/input-csp=1/input-res=1920x800/interlace=0/total-frames=0/level-idc=50/high-tier=1/uhd-bd=0/ref=5/allow-non-conformance/no-repeat-t_heads/annexb/no-aud/no-hrd/info/hash=0/no-temporal-layers/open-gop/min-keyint=24/keyint=240/gop-lookahead=0/bframes=10/b-adapt=2/b-pyramid/bframe-bias=0/rc-lookahead=40/lookahead-slices=5/scenecut=40/radl=0/no-intra-refresh/ctu=64/min-cu-size=8/no-rect/no-amp/max-tu-size=32/tu-inter-depth=3/tu-intra-depth=3/limit-tu=0/rdoq-level=1/dynamic-rd=0.00/no-ssim-rd/signhide/no-tskip/nr-intra=0/nr-inter=0/no-constrained-intra/no-strong-intra-smoothing/max-merge=3/limit-refs=3/no-limit-modes/me=3/subme=7/merange=57/temporal-mvp/weightp/weightb/no-analyze-src-pics/deblock=-3: -3/no-sao/no-sao-non-deblock/rd=4/no-early-skip/rskip/no-fast-intra/no-tskip-fast/no-cu-lossless/no-b-intra/no-splitrd-skip/rdpenalty=0/psy-rd=2.00/psy-rdoq=0.00/no-rd-refine/no-lossless/cbqpoffs=0/crqpoffs=0/rc=crf/crf=18.0/qcomp=0.60/qpstep=4/stats-write=0/stats-read=0/vbv-maxrate=50000/vbv-bufsize=35714/vbv-init=0.9/crf-max=0.0/crf-min=0.0/ipratio=1.40/pbratio=1.30/aq-mode=1/aq-strength=1.00/cutree/zone-count=0/no-strict-cbr/qg-size=32/no-rc-grain/qpmax=69/qpmin=0/no-const-vbv/sar=1/overscan=0/videoformat=5/range=0/colorprim=2/transfer=2/colormatrix=2/chromaloc=0/display-window=0/max-cll=0, 0/min-luma=0/max-luma=1023/log2-max-poc-lsb=8/vui-timing-info/vui-hrd-info/slices=1/no-opt-qp-pps/no-opt-ref-list-length-pps/no-multi-pass-opt-rps/scenecut-bias=0.05/no-opt-cu-delta-qp/no-aq-motion/no-hdr/no-hdr-opt/no-dhdr10-opt/analysis-reuse-level=5/scale-factor=0/refine-intra=0/refine-inter=0/refine-mv=0/no-limit-sao/ctu-info=0/no-lowpass-dct/refine-mv-type=0/copy-pic=1
    Язык : English
    Default : Да
    Forced : Нет
    Цветовой диапазон : Limited
    Аудио #1
    Идентификатор : 2
    Формат : AC-3
    Формат/Информация : Audio Coding 3
    Идентификатор кодека : A_AC3
    Продолжительность : 2 ч. 28 м.
    Вид битрейта : Постоянный
    Битрейт : 384 Кбит/сек
    Каналы : 6 каналов
    Расположение каналов : Front: L C R, Side: L R, LFE
    Частота : 48, 0 КГц
    Частота кадров : 31, 250 кадров/сек (1536 SPF)
    Битовая глубина : 16 бит
    Метод сжатия : С потерями
    Размер потока : 409 Мбайт (6%)
    Заголовок : DUB (iTunes)
    Язык : Russian
    ServiceKind/String : Complete Main
    Default : Да
    Forced : Нет
    Аудио #2
    Идентификатор : 3
    Формат : AC-3
    Формат/Информация : Audio Coding 3
    Идентификатор кодека : A_AC3
    Продолжительность : 2 ч. 28 м.
    Вид битрейта : Постоянный
    Битрейт : 384 Кбит/сек
    Каналы : 6 каналов
    Расположение каналов : Front: L C R, Side: L R, LFE
    Частота : 48, 0 КГц
    Частота кадров : 31, 250 кадров/сек (1536 SPF)
    Битовая глубина : 16 бит
    Метод сжатия : С потерями
    Размер потока : 409 Мбайт (6%)
    Заголовок : AVO (Живов)
    Язык : Russian
    ServiceKind/String : Complete Main
    Default : Нет
    Forced : Нет
    Аудио #3
    Идентификатор : 4
    Формат : AC-3
    Формат/Информация : Audio Coding 3
    Идентификатор кодека : A_AC3
    Продолжительность : 2 ч. 28 м.
    Вид битрейта : Постоянный
    Битрейт : 384 Кбит/сек
    Каналы : 6 каналов
    Расположение каналов : Front: L C R, Side: L R, LFE
    Частота : 48, 0 КГц
    Частота кадров : 31, 250 кадров/сек (1536 SPF)
    Битовая глубина : 16 бит
    Метод сжатия : С потерями
    Размер потока : 409 Мбайт (6%)
    Язык : English
    ServiceKind/String : Complete Main
    Default : Нет
    Forced : Нет
    Текст #1
    Идентификатор : 5
    Формат : UTF-8
    Идентификатор кодека : S_TEXT/UTF8
    Идентификатор кодека/Информация : UTF-8 Plain Text
    Продолжительность : 1 ч. 12 м.
    Битрейт : 2 бит/сек
    ElementCount : 30
    Размер потока : 1, 23 Кбайт (0%)
    Заголовок : Rus forced
    Язык : Russian
    Default : Да
    Forced : Да
    Текст #2
    Идентификатор : 6
    Формат : UTF-8
    Идентификатор кодека : S_TEXT/UTF8
    Идентификатор кодека/Информация : UTF-8 Plain Text
    Продолжительность : 2 ч. 18 м.
    Битрейт : 75 бит/сек
    ElementCount : 1428
    Размер потока : 77, 1 Кбайт (0%)
    Заголовок : Rus full
    Язык : Russian
    Default : Нет
    Forced : Нет
    Текст #3
    Идентификатор : 7
    Формат : UTF-8
    Идентификатор кодека : S_TEXT/UTF8
    Идентификатор кодека/Информация : UTF-8 Plain Text
    Продолжительность : 2 ч. 18 м.
    Битрейт : 45 бит/сек
    ElementCount : 1582
    Размер потока : 45, 8 Кбайт (0%)
    Язык : English
    Default : Нет
    Forced : Нет
    Меню
    00: 00: 00.000 : : Глава 1
    00: 03: 33.336 : : Глава 2
    00: 08: 04.733 : : Глава 3
    00: 10: 34.216 : : Глава 4
    00: 15: 11.408 : : Глава 5
    00: 18: 44.248 : : Глава 6
    00: 22: 43.528 : : Глава 7
    00: 24: 38.768 : : Глава 8
    00: 29: 05.615 : : Глава 9
    00: 33: 03.439 : : Глава 10
    00: 37: 11.896 : : Глава 11
    00: 38: 49.827 : : Глава 12
    00: 41: 06.922 : : Глава 13
    00: 43: 50.335 : : Глава 14
    00: 50: 05.376 : : Глава 15
    00: 52: 07.081 : : Глава 16
    00: 55: 11.391 : : Глава 17
    00: 57: 56.347 : : Глава 18
    01: 01: 04.659 : : Глава 19
    01: 04: 01.420 : : Глава 20
    01: 06: 39.829 : : Глава 21
    01: 10: 22.801 : : Глава 22
    01: 13: 00.457 : : Глава 23
    01: 16: 28.332 : : Глава 24
    01: 18: 48.720 : : Глава 25
    01: 20: 44.587 : : Глава 26
    01: 22: 46.961 : : Глава 27
    01: 28: 07.573 : : Глава 28
    01: 31: 19.055 : : Глава 29
    01: 33: 50.957 : : Глава 30
    01: 39: 22.372 : : Глава 31
    01: 42: 10.287 : : Глава 32
    01: 44: 32.015 : : Глава 33
    01: 49: 13.546 : : Глава 34
    01: 51: 00.862 : : Глава 35
    01: 54: 54.301 : : Глава 36
    01: 59: 15.939 : : Глава 37
    02: 02: 13.742 : : Глава 38
    02: 04: 30.502 : : Глава 39
    02: 08: 16.229 : : Глава 40
    02: 13: 27.582 : : Глава 41
    02: 16: 57.250 : : Глава 42
    02: 19: 19.808 : : Глава 43
    02: 27: 34.011 : : Глава 44
    02: 28: 45.457 : : Глава 45
    Доп. информация : -
    H.265/HEVC (High Efficiency Video Coding) - это новый стандарт кодирования видео.
    - Стандарт H.265/HEVC является логическим продолжением стандарта
    H.264/AVC (Advanced Video Coding), и характеризуется более эффективными
    алгоритмами сжатия, а также поддержкой высокого разрешения вплоть до 8K UHD
    (8192x4320). Первая версия стандарта H.265 была опубликована в начале 2013 года.
    - Рипы в фомате HEVC поддерживается не всеми аппаратными проигрывателями.
    - Для корректного воспроизведения может потребоваться обновление ПО.
    - Владельцам несовместимого железа просьба не беспокоить,
    есть альтернативные релизы.

    Скриншоты для ознакомления



    Все одноименные релизы в Клубе
    Время раздачи: с 8: 00 до 22: 00 (до появления первых 3-5 скачавших)


    Онлайн видео Люди Икс: Дни минувшего будущего



    Люди Икс: Дни минувшего будущего/X-Men: Days of Future Past (2014) BDRip [H.265/1080p-LQ] [10-bit] [Rogue Cut]
    Рейтинг →
     (голосов: 1, оценка 4/5, голосовать можно 1 раз )

    Другие торренты по теме:

  • Люди Икс: Дни минувшего будущего / X-Men: Days of Future Past (2014) WEB-DL [720p]
  • Люди Икс: Дни минувшего будущего / X-Men: Days of Future Past (2014) DVD9
  • Люди Икс: Дни минувшего будущего / X-Men: Days of Future Past (2014) DVDRip [H264] скачать через торрент бесплатно
  • Люди Икс: Дни минувшего будущего / X-Men: Days of Future Past (2014) DVDRip [H.264] скачать через торрент бесплатно
  • Люди Икс: Дни минувшего будущего / X-Men: Days of Future Past (2014) DVD5 скачать через торрент бесплатно
  • Люди Икс: Дни минувшего будущего / X-Men: Days of Future Past (2014) HDRip скачать через торрент бесплатно
  • Люди Икс: Дни минувшего будущего / X-Men: Days of Future Past (2014) BDRemux [1080p] скачать через торрент бесплатно
  • Люди Икс: Дни минувшего будущего / X-Men: Days of Future Past (2014) BDRemux 3D [1080p] [3D / 2D] скачать через торрент бесплатно


    • Комментарии (0):

      Информация

      Информация

        Посетители, находящиеся в группе Гости, не могут оставлять комментарии в данной новости.

        ↓ Меню




        ↓ Опрос

        Вы добавили сайт в закладки?
        Да
        Нет


        Top 10 за месяц (Фильмы)