.
Авторизация | Регистрация
Хочешь лучшие торренты? Добавь свой email!
Добавить

Торрент скачать бесплатно

  • support: webmaster@btracker.club
» » Люди Икс: Апокалипсис / X-Men: Apocalypse (2016) BDRip [H.265 / 1080p-LQ] [10-bit] торрент скачать бесплатно


    Люди Икс: Апокалипсис / X-Men: Apocalypse (2016) BDRip [H.265 / 1080p-LQ] [10-bit] торрент скачать бесплатно

    Опубликовал: fregat | Дата: 31-10-2018, 05:00 | .torrent скачали: 1

    Люди Икс: Апокалипсис / X-Men: Apocalypse (2016) BDRip [H.265 / 1080p-LQ] [10-bit]Производство: США
    Жанр: Фантастика, Боевик, Приключения, Триллер
    Режиссер: Брайан Сингер

    Актеры
    Джеймс МакЭвой, Майкл Фассбендер, Дженнифер Лоуренс, Николас Холт, Оскар Айзек, Роуз Бирн

    Описание

    События Дней Минувшего Будущего оказали колоссальное влияние на мир, где мутанты и люди борются за свое место под Солнцем. В это нелегкое время Людям Икс предстоит столкнуться со своим самым опасным противником — древним мутантом Апокалипсисом, существом, схватка с которым может стать последней не только для мутантов, но и в принципе для всего человечества.

    Возраст: 12+ (зрителям, достигшим 12 лет)
    Рейтинг MPAA: PG-13 (детям до 13 лет просмотр нежелателен)
    Релиз от: Cthulhu
    Продолжительность: 02: 23: 57
    Качество видео: BDRip
    Перевод: Дублированный
    Субтитры: Русские (форсированные, полные), английские (форсированные, полные)
    Видео: HEVC/H.265, 1920x800, ~5849 Kbps
    Аудио 1: AC3, 6 ch, 640 Kbps - Дублированный
    Аудио 2: AC3, 6 ch, 448 Kbps - MVO (FocusStudio)
    Аудио 3: AC3, 6 ch, 384 Kbps - AVO (Живов)
    Аудио 4: AC3, 6 ch, 640 Kbps - Английский

    Общее
    Уникальный идентификатор : 195376665639866139003545004817083005692 (0x92FC2D550D388C2E550AF6CB2C27FAFC)
    Полное имя : F: РАЗДАЧИX-Men. Apocalypse (2016) BDRip 1080p HEVC 10Bit_Cthulhu.mkv
    Формат : Matroska
    Версия формата : Version 4/Version 2
    Размер файла : 8, 01 Гбайт
    Продолжительность : 2 ч. 23 м.
    Общий поток : 7964 Кбит/сек
    Название фильма : X-Men: Apocalypse (2016)_rip_by_Cthulhu
    Дата кодирования : UTC 2018-06-05 15: 38: 14
    Программа кодирования : mkvmerge v21.0.0 ('Tardigrades Will Inherit The Earth') 64-bit
    Библиотека кодирования : libebml v1.3.5 + libmatroska v1.4.8
    Обложка : Yes
    Attachments : cover.jpg
    Видео
    Идентификатор : 1
    Формат : HEVC
    Формат/Информация : High Efficiency Video Coding
    Профиль формата : Main10@L4.1@High
    Идентификатор кодека : V_MPEGH/ISO/HEVC
    Продолжительность : 2 ч. 23 м.
    Битрейт : 5849 Кбит/сек
    Ширина : 1920 пикселей
    Высота : 800 пикселей
    Соотношение сторон : 2, 40: 1
    Режим частоты кадров : Постоянный
    Частота кадров : 23, 976 (24000/1001) кадра/сек
    Цветовое пространство : YUV
    Субдискретизация насыщенности : 4: 2: 0
    Битовая глубина : 10 бит
    Бит/(Пиксели*Кадры) : 0.159
    Размер потока : 5, 88 Гбайт (73%)
    Библиотека кодирования : x265 2.7+340-aa9102400f24: WindowsGCC 8.0.164 bit 10bit
    Настройки программы : cpuid=1049583/frame-threads=4/numa-pools=4/wpp/no-pmode/no-pme/no-psnr/no-ssim/log-level=2/input-csp=1/input-res=1920x800/interlace=0/total-frames=207064/level-idc=41/high-tier=1/uhd-bd=0/ref=5/no-allow-non-conformance/no-repeat-t_heads/annexb/no-aud/no-hrd/info/hash=0/no-temporal-layers/open-gop/min-keyint=23/keyint=240/gop-lookahead=0/bframes=8/b-adapt=2/b-pyramid/bframe-bias=0/rc-lookahead=40/lookahead-slices=4/scenecut=40/radl=0/no-intra-refresh/ctu=64/min-cu-size=8/rect/amp/max-tu-size=32/tu-inter-depth=3/tu-intra-depth=3/limit-tu=4/rdoq-level=1/dynamic-rd=0.00/no-ssim-rd/signhide/no-tskip/nr-intra=0/nr-inter=0/no-constrained-intra/no-strong-intra-smoothing/max-merge=3/limit-refs=2/limit-modes/me=3/subme=7/merange=57/temporal-mvp/weightp/weightb/no-analyze-src-pics/deblock=-3: -3/no-sao/no-sao-non-deblock/rd=4/no-early-skip/rskip/no-fast-intra/no-tskip-fast/no-cu-lossless/no-b-intra/no-splitrd-skip/rdpenalty=0/psy-rd=2.00/psy-rdoq=1.00/no-rd-refine/no-lossless/cbqpoffs=0/crqpoffs=0/rc=crf/crf=18.0/qcomp=0.60/qpstep=4/stats-write=0/stats-read=0/vbv-maxrate=50000/vbv-bufsize=50000/vbv-init=0.9/crf-max=0.0/crf-min=0.0/ipratio=1.40/pbratio=1.30/aq-mode=1/aq-strength=1.00/cutree/zone-count=0/no-strict-cbr/qg-size=32/no-rc-grain/qpmax=69/qpmin=0/no-const-vbv/sar=1/overscan=0/videoformat=5/range=0/colorprim=1/transfer=1/colormatrix=1/chromaloc=0/display-window=0/max-cll=0, 0/min-luma=0/max-luma=1023/log2-max-poc-lsb=8/vui-timing-info/vui-hrd-info/slices=1/no-opt-qp-pps/no-opt-ref-list-length-pps/no-multi-pass-opt-rps/scenecut-bias=0.05/no-opt-cu-delta-qp/no-aq-motion/no-hdr/no-hdr-opt/no-dhdr10-opt/no-idr-recovery-sei/analysis-reuse-level=5/scale-factor=0/refine-intra=0/refine-inter=0/refine-mv=0/no-limit-sao/ctu-info=0/no-lowpass-dct/refine-mv-type=0/copy-pic=1/max-ausize-factor=1.0/no-dynamic-refine/no-single-sei
    Язык : English
    Default : Да
    Forced : Нет
    Цветовой диапазон : Limited
    Основные цвета : BT.709
    Характеристики трансфера : BT.709
    Коэффициенты матрицы : BT.709
    Аудио #1
    Идентификатор : 2
    Формат : AC-3
    Формат/Информация : Audio Coding 3
    Идентификатор кодека : A_AC3
    Продолжительность : 2 ч. 23 м.
    Вид битрейта : Постоянный
    Битрейт : 640 Кбит/сек
    Каналы : 6 каналов
    Расположение каналов : Front: L C R, Side: L R, LFE
    Частота : 48, 0 КГц
    Частота кадров : 31, 250 кадров/сек (1536 SPF)
    Битовая глубина : 16 бит
    Метод сжатия : С потерями
    Размер потока : 659 Мбайт (8%)
    Заголовок : DUB
    Язык : Russian
    ServiceKind/String : Complete Main
    Default : Да
    Forced : Нет
    Аудио #2
    Идентификатор : 3
    Формат : AC-3
    Формат/Информация : Audio Coding 3
    Идентификатор кодека : A_AC3
    Продолжительность : 2 ч. 23 м.
    Вид битрейта : Постоянный
    Битрейт : 448 Кбит/сек
    Каналы : 6 каналов
    Расположение каналов : Front: L C R, Side: L R, LFE
    Частота : 48, 0 КГц
    Частота кадров : 31, 250 кадров/сек (1536 SPF)
    Битовая глубина : 16 бит
    Метод сжатия : С потерями
    Размер потока : 461 Мбайт (6%)
    Заголовок : MVO FocusStudio
    Язык : Russian
    ServiceKind/String : Complete Main
    Default : Нет
    Forced : Нет
    Аудио #3
    Идентификатор : 4
    Формат : AC-3
    Формат/Информация : Audio Coding 3
    Идентификатор кодека : A_AC3
    Продолжительность : 2 ч. 23 м.
    Вид битрейта : Постоянный
    Битрейт : 384 Кбит/сек
    Каналы : 6 каналов
    Расположение каналов : Front: L C R, Side: L R, LFE
    Частота : 48, 0 КГц
    Частота кадров : 31, 250 кадров/сек (1536 SPF)
    Битовая глубина : 16 бит
    Метод сжатия : С потерями
    Размер потока : 395 Мбайт (5%)
    Заголовок : AVO Живов
    Язык : Russian
    ServiceKind/String : Complete Main
    Default : Нет
    Forced : Нет
    Аудио #4
    Идентификатор : 5
    Формат : AC-3
    Формат/Информация : Audio Coding 3
    Идентификатор кодека : A_AC3
    Продолжительность : 2 ч. 23 м.
    Вид битрейта : Постоянный
    Битрейт : 640 Кбит/сек
    Каналы : 6 каналов
    Расположение каналов : Front: L C R, Side: L R, LFE
    Частота : 48, 0 КГц
    Частота кадров : 31, 250 кадров/сек (1536 SPF)
    Битовая глубина : 16 бит
    Метод сжатия : С потерями
    Размер потока : 659 Мбайт (8%)
    Язык : English
    ServiceKind/String : Complete Main
    Default : Нет
    Forced : Нет
    Текст #1
    Идентификатор : 6
    Формат : UTF-8
    Идентификатор кодека : S_TEXT/UTF8
    Идентификатор кодека/Информация : UTF-8 Plain Text
    Продолжительность : 2 ч. 22 м.
    Битрейт : 3 бит/сек
    ElementCount : 110
    Размер потока : 3, 64 Кбайт (0%)
    Заголовок : rus forced
    Язык : Russian
    Default : Нет
    Forced : Нет
    Текст #2
    Идентификатор : 7
    Формат : UTF-8
    Идентификатор кодека : S_TEXT/UTF8
    Идентификатор кодека/Информация : UTF-8 Plain Text
    Продолжительность : 2 ч. 22 м.
    Битрейт : 55 бит/сек
    ElementCount : 1422
    Размер потока : 58, 4 Кбайт (0%)
    Заголовок : rus full
    Язык : Russian
    Default : Нет
    Forced : Нет
    Текст #3
    Идентификатор : 8
    Формат : UTF-8
    Идентификатор кодека : S_TEXT/UTF8
    Идентификатор кодека/Информация : UTF-8 Plain Text
    Продолжительность : 1 ч. 26 м.
    Битрейт : 3 бит/сек
    ElementCount : 97
    Размер потока : 1, 97 Кбайт (0%)
    Заголовок : eng forced
    Язык : English
    Default : Нет
    Forced : Нет
    Текст #4
    Идентификатор : 9
    Формат : UTF-8
    Идентификатор кодека : S_TEXT/UTF8
    Идентификатор кодека/Информация : UTF-8 Plain Text
    Продолжительность : 2 ч. 12 м.
    Битрейт : 39 бит/сек
    ElementCount : 1457
    Размер потока : 38, 7 Кбайт (0%)
    Заголовок : eng full
    Язык : English
    Default : Нет
    Forced : Нет
    Меню
    00: 00: 00.000 : en: (01)00: 00: 00: 000
    00: 08: 18.788 : en: (02)00: 08: 18: 788
    00: 14: 13.184 : en: (03)00: 14: 13: 184
    00: 18: 07.086 : en: (04)00: 18: 07: 086
    00: 24: 55.492 : en: (05)00: 24: 55: 492
    00: 30: 45.343 : en: (06)00: 30: 45: 343
    00: 36: 35.233 : en: (07)00: 36: 35: 233
    00: 41: 00.081 : en: (08)00: 41: 00: 081
    00: 45: 56.503 : en: (09)00: 45: 56: 503
    00: 49: 24.293 : en: (10)00: 49: 24: 293
    00: 55: 22.610 : en: (11)00: 55: 22: 610
    00: 59: 36.822 : en: (12)00: 59: 36: 822
    01: 04: 43.670 : en: (13)01: 04: 43: 670
    01: 12: 35.850 : en: (14)01: 12: 35: 850
    01: 17: 32.898 : en: (15)01: 17: 32: 898
    01: 22: 18.515 : en: (16)01: 22: 18: 515
    01: 27: 45.591 : en: (17)01: 27: 45: 591
    01: 34: 05.805 : en: (18)01: 34: 05: 805
    01: 36: 46.634 : en: (19)01: 36: 46: 634
    01: 39: 50.900 : en: (20)01: 39: 50: 900
    01: 43: 34.373 : en: (21)01: 43: 34: 373
    01: 49: 57.381 : en: (22)01: 49: 57: 381
    01: 55: 08.359 : en: (23)01: 55: 08: 359
    01: 57: 21.658 : en: (24)01: 57: 21: 658
    02: 03: 50.547 : en: (25)02: 03: 50: 547
    02: 07: 56.710 : en: (26)02: 07: 56: 710
    02: 10: 59.100 : en: (27)02: 10: 59: 100
    02: 12: 54.091 : en: (28)02: 12: 54: 091
    02: 23: 56.043 : en: (29)02: 23: 56: 043
    Доп. информация : -
    H.265/HEVC (High Efficiency Video Coding) - это новый стандарт кодирования видео.
    - Стандарт H.265/HEVC является логическим продолжением стандарта
    H.264/AVC (Advanced Video Coding), и характеризуется более эффективными
    алгоритмами сжатия, а также поддержкой высокого разрешения вплоть до 8K UHD
    (8192x4320). Первая версия стандарта H.265 была опубликована в начале 2013 года.
    - Рипы в фомате HEVC поддерживается не всеми аппаратными проигрывателями.
    - Для корректного воспроизведения может потребоваться обновление ПО.
    - Владельцам несовместимого железа просьба не беспокоить,
    есть альтернативные релизы.

    Скриншоты для ознакомления



    Все одноименные релизы в Клубе
    Время раздачи: с 8: 00 до 22: 00 (до появления первых 3-5 скачавших)


    Онлайн видео Люди Икс: Апокалипсис



    Люди Икс: Апокалипсис/X-Men: Apocalypse (2016) BDRip [H.265/1080p-LQ] [10-bit]
    Рейтинг →
     (голосов: 1, оценка 4/5, голосовать можно 1 раз )

    Другие торренты по теме:

  • Люди Икс: Апокалипсис / X-Men: Apocalypse (2016) WEBRip [H.264 / 1080p] [Трейлер] скачать через торрент бесплатно
  • Люди Икс: Апокалипсис / X-Men: Apocalypse (2016) WEBRip [H.264 / 1080p] [Трейлер#2]
  • Люди Икс: Апокалипсис / X-Men: Apocalypse (2016) WEBRip [H.264 / 1080p] [Трейлер#3]
  • Люди Икс: Апокалипсис / X-Men: Apocalypse (2016) CamRip (PROPER)
  • Люди Икс: Апокалипсис / X-Men: Apocalypse (2016) CamRip
  • Люди Икс: Апокалипсис / X-Men: Apocalypse (2016) TS
  • Люди Икс: Апокалипсис / X-Men: Apocalypse (2016) TS
  • Люди Икс: Апокалипсис / X-Men: Apocalypse (2016) CamRip [MP4|624x272] [EN]


    • Комментарии (0):

      Информация

      Информация

        Посетители, находящиеся в группе Гости, не могут оставлять комментарии в данной новости.

        ↓ Меню




        ↓ Опрос

        Вы добавили сайт в закладки?
        Да
        Нет


        Top 10 за месяц (Фильмы)