.
Авторизация | Регистрация
Хочешь лучшие торренты? Добавь свой email!
Добавить

Торрент скачать бесплатно

  • support: webmaster@btracker.club
» » Отель Новая Роза / New Rose Hotel (1998) DVDRip [H.264] торрент скачать бесплатно


    Отель Новая Роза / New Rose Hotel (1998) DVDRip [H.264] торрент скачать бесплатно

    Опубликовал: fregat | Дата: 31-10-2018, 05:00 | .torrent скачали: 1

    Отель Новая Роза / New Rose Hotel (1998) DVDRip [H.264]Производство: США/Edward R. Pressman Film Corporation, Quadra Entertainment
    Жанр: Фантастика, Драма, Детектив
    Режиссер: Абель Феррара
    Продюсер: Эдвард Р. Прессман, Адам Брайтман, Алессандро Камон

    Актеры
    Кристофер Уокен, Уиллем Дефо, Азия Ардженто, Аннабелла Шиорра, Джон Лури, Кимми Сузуки, Миу, Ёситака Амано, Гретхен Мол, Фил Нилсон

    Описание

    В недалеком будущем японский генетик Хироши становится причиной войны между японской и немецкой мегакорпорациями. Его изобретения способны перевернуть мир и сулят миллионные прибыли. В целях безопасности японцы нанимают лучших специалистов по шпионажу. Но смогут ли они устоять перед смертельной интригой и предательством?!

    Возраст: 16+ (зрителям, достигшим 16 лет)
    Рейтинг MPAA: R (лицам до 17 лет обязательно присутствие взрослого)
    Релиз от: Охрана (NNMCLUB)
    Продолжительность: 01: 33: 10
    Качество видео: DVDRip
    Перевод: Многоголосый закадровый, авторский
    Субтитры: Русские, английские
    Видео: AVC/H.264, 720x400, ~2033 Kbps
    Аудио 1: AC3, 2 ch, 192 Kbps, 48.0 kHz – Русский МVO
    Аудио 2: AC3, 2 ch, 192 Kbps, 48.0 kHz – Русский AVO, П.Карцев
    Аудио 3: AC3, 2 ch, 192 Kbps, 48.0 kHz – Английский, оригинал

    Общее
    Уникальный идентификатор : 205919326381299793581361776775430956304 (0x9AEA9EA362EE6517802A96ECD2206510)
    Полное имя : B: DownloadsОтель Новая Роза. 1998. NNMCLUB.mkv
    Формат : Matroska
    Версия формата : Version 4/Version 2
    Размер файла : 1, 70 Гбайт
    Продолжительность : 1 ч. 33 м.
    Общий поток : 2612 Кбит/сек
    Дата кодирования : UTC 2018-10-28 09: 49: 55
    Программа кодирования : mkvmerge v7.9.0 ('Birds') 64bit
    Библиотека кодирования : libebml v1.3.1 + libmatroska v1.4.2
    Видео
    Идентификатор : 1
    Формат : AVC
    Формат/Информация : Advanced Video Codec
    Профиль формата : High@L4.1
    Настройки формата : CABAC/12 Ref Frames
    Параметр CABAC формата : Да
    Параметр RefFrames формата : 12 кадров
    Идентификатор кодека : V_MPEG4/ISO/AVC
    Продолжительность : 1 ч. 33 м.
    Битрейт : 2033 Кбит/сек
    Ширина : 720 пикселей
    Высота : 400 пикселей
    Соотношение сторон : 16: 9
    Режим частоты кадров : Постоянный
    Частота кадров : 23, 976 (24000/1001) кадра/сек
    Цветовое пространство : YUV
    Субдискретизация насыщенности : 4: 2: 0
    Битовая глубина : 8 бит
    Тип развёртки : Прогрессивная
    Бит/(Пиксели*Кадры) : 0.294
    Размер потока : 1, 32 Гбайт (78%)
    Заголовок : New Rose Hotel
    Библиотека кодирования : x264 core 146 r2538 121396c
    Настройки программы : cabac=1/ref=12/deblock=1: -1: -1/analyse=0x3: 0x113/me=umh/subme=10/psy=1/psy_rd=1.00: 0.10/mixed_ref=1/me_range=32/chroma_me=1/trellis=2/8x8dct=1/cqm=0/deadzone=21, 11/fast_pskip=0/chroma_qp_offset=-3/threads=6/lookahead_threads=1/sliced_threads=0/nr=0/decimate=0/interlaced=0/bluray_compat=0/constrained_intra=0/bframes=7/b_pyramid=2/b_adapt=2/b_bias=0/direct=3/weightb=1/open_gop=0/weightp=2/keyint=250/keyint_min=25/scenecut=40/intra_refresh=0/rc_lookahead=60/rc=2pass/mbtree=1/bitrate=2033/ratetol=1.0/qcomp=0.60/qpmin=0/qpmax=69/qpstep=4/cplxblur=20.0/qblur=0.5/vbv_maxrate=14000/vbv_bufsize=14000/nal_hrd=none/filler=0/ip_ratio=1.40/aq=1: 1.00
    Язык : English
    Default : Да
    Forced : Нет
    Аудио #1
    Идентификатор : 2
    Формат : AC-3
    Формат/Информация : Audio Coding 3
    Идентификатор кодека : A_AC3
    Продолжительность : 1 ч. 33 м.
    Вид битрейта : Постоянный
    Битрейт : 192 Кбит/сек
    Каналы : 2 канала
    Расположение каналов : Front: L R
    Частота : 48, 0 КГц
    Частота кадров : 31, 250 кадров/сек (1536 SPF)
    Битовая глубина : 16 бит
    Метод сжатия : С потерями
    Размер потока : 128 Мбайт (7%)
    Заголовок : Многоголосый закадровый
    Язык : Russian
    ServiceKind/String : Complete Main
    Default : Да
    Forced : Нет
    Аудио #2
    Идентификатор : 3
    Формат : AC-3
    Формат/Информация : Audio Coding 3
    Идентификатор кодека : A_AC3
    Продолжительность : 1 ч. 33 м.
    Вид битрейта : Постоянный
    Битрейт : 192 Кбит/сек
    Каналы : 2 канала
    Расположение каналов : Front: L R
    Частота : 48, 0 КГц
    Частота кадров : 31, 250 кадров/сек (1536 SPF)
    Битовая глубина : 16 бит
    Метод сжатия : С потерями
    Размер потока : 128 Мбайт (7%)
    Заголовок : Авторский, П.Карцев
    Язык : Russian
    ServiceKind/String : Complete Main
    Default : Нет
    Forced : Нет
    Аудио #3
    Идентификатор : 4
    Формат : AC-3
    Формат/Информация : Audio Coding 3
    Идентификатор кодека : A_AC3
    Продолжительность : 1 ч. 33 м.
    Вид битрейта : Постоянный
    Битрейт : 192 Кбит/сек
    Каналы : 2 канала
    Расположение каналов : Front: L R
    Частота : 48, 0 КГц
    Частота кадров : 31, 250 кадров/сек (1536 SPF)
    Битовая глубина : 16 бит
    Метод сжатия : С потерями
    Размер потока : 128 Мбайт (7%)
    Заголовок : Оригинал
    Язык : English
    ServiceKind/String : Complete Main
    Default : Нет
    Forced : Нет
    Текст #1
    Идентификатор : 5
    Формат : UTF-8
    Идентификатор кодека : S_TEXT/UTF8
    Идентификатор кодека/Информация : UTF-8 Plain Text
    Продолжительность : 1 ч. 26 м.
    Битрейт : 103 бит/сек
    ElementCount : 1144
    Размер потока : 65, 6 Кбайт (0%)
    Заголовок : Full
    Язык : Russian
    Default : Нет
    Forced : Нет
    Текст #2
    Идентификатор : 6
    Формат : UTF-8
    Идентификатор кодека : S_TEXT/UTF8
    Идентификатор кодека/Информация : UTF-8 Plain Text
    Продолжительность : 1 ч. 26 м.
    Битрейт : 58 бит/сек
    ElementCount : 1150
    Размер потока : 36, 8 Кбайт (0%)
    Заголовок : Full
    Язык : English
    Default : Нет
    Forced : Нет

    Скриншоты для ознакомления




    Все одноименные релизы в Клубе
    Время раздачи: с 13: 00 до 01: 00 МСК, выходные круглосуточно (до появления первых 3-5 скачавших)


    Онлайн видео Отель Новая Роза



    Отель Новая Роза/New Rose Hotel (1998) DVDRip [H.264]
    Рейтинг →
     (голосов: 1, оценка 3/5, голосовать можно 1 раз )

    Другие торренты по теме:

  • Отель "У погибшего альпиниста" (1979) DVDRip [H.264] скачать через торрент бесплатно
  • Отель «Руанда» / Hotel Rwanda (2004) BDRemux [1080p]
  • Отель "У погибшего альпиниста" (1979) DVDRip [H.264] скачать через торрент бесплатно
  • Калифорнийский отель / California Suite (1978) DVDRip [H.264]
  • Аркадий и Борис Стругацкие | Отель У погибшего альпиниста (2013) [m4b|AAC] скачать через торрент бесплатно
  • Отель «Гранд Будапешт» / The Grand Budapest Hotel (2014) BDRemux [1080p] скачать через торрент бесплатно
  • Haunted Hotel 8: Eternity / Проклятый отель 8: Вечность (2015) [Ru] Unofficial [Collectors Edition / Коллекционное издание] скачать через торрент бесплатно
  • Отель «Мэриголд». Заселение продолжается / The Second Best Exotic Marigold Hotel (2015) HDRip [Звук с TS] скачать через торрент бесплатно


    • Комментарии (0):

      Информация

      Информация

        Посетители, находящиеся в группе Гости, не могут оставлять комментарии в данной новости.

        ↓ Меню




        ↓ Опрос

        Вы добавили сайт в закладки?
        Да
        Нет


        Top 10 за месяц (Фильмы)