.
Авторизация | Регистрация
Хочешь лучшие торренты? Добавь свой email!
Добавить

Торрент скачать бесплатно

  • support: webmaster@btracker.club
» » Человек-муравей и Оса / Ant-Man and the Wasp (2018) HDRip [H.264] торрент скачать бесплатно


    Человек-муравей и Оса / Ant-Man and the Wasp (2018) HDRip [H.264] торрент скачать бесплатно

    Опубликовал: fregat | Дата: 6-10-2018, 05:00 | .torrent скачали: 0

    Человек-муравей и Оса / Ant-Man and the Wasp (2018) HDRip [H.264]Производство: США | Marvel Studios Inc.
    Жанр: Фантастика, боевик, приключения
    Режиссер: Пейтон Рид

    Актеры
    Пол Радд, Эванджелин Лилли, Майкл Пенья, Уолтон Гоггинс, Бобби Каннавале, Джуди Грир, Ти-Ай, Давид Дастмалчян, Ханна Джон-Кэймен, Эбби Райдер Фортсон

    Описание

    Скотт Лэнг, известный также как Человек-муравей, уже заслужил право оказаться в команде Мстителей. Но желание быть ближе к дочери удерживает его в родном Сан-Франциско — до тех пор, пока доктор Хэнк Пим, создавший когда-то изменяющий размеры своего владельца чудо-костюм, не призывает Скотта присоединиться к новой опасной миссии. А помогать в противостоянии с коварным врагом Человеку-муравью будет новая напарница — Оса.

    Возраст: 12+ (зрителям, достигшим 12 лет)
    Рейтинг MPAA: PG-13 (детям до 13 лет просмотр нежелателен)
    Дата мировой премьеры: 25 июня 2018
    Дата российской премьеры: 5 июля 2018, WDSSPR
    Цифровой релиз: 5 октября 2018, Уолт Дисней Компани СНГ
    Продолжительность: 01: 58: 06
    Качество видео: HDRip
    Перевод: Дублированный (iTunes)
    Субтитры: Pусские (forced, full)
    Видео: AVC/H.264, 1024x428 (2.40: 1), ~1891 kbps, 23.976 fps
    Аудио: AC3, 6 ch, 48.0 kHz, 384 kbps cbr

    General
    Unique ID : 175617083317206889487551274294249185546 (0x841E9EB5160F4ACFAFB58591E162E10A)
    Complete name : D: Ant-Man_and_the_Wasp_AVC_iTunes.mkv
    Format : Matroska
    Format version : Version 4
    File size : 1.88 GiB
    Duration : 1 h 58 min
    Overall bit rate : 2 269 kb/s
    Movie name : Ant-Man.and.the.Wasp.2018 #TorpedoUK#
    Encoded date : UTC 2018-10-05 02: 20: 56
    Writing application : mkvmerge v25.0.0 ('Prog Noir') 64-bit
    Writing library : libebml v1.3.6 + libmatroska v1.4.9
    Video
    ID : 1
    Format : AVC
    Format/Info : Advanced Video Codec
    Format profile : High@L4.1
    Format settings : CABAC/10 Ref Frames
    Format settings, CABAC : Yes
    Format settings, ReFrames : 10 frames
    Codec ID : V_MPEG4/ISO/AVC
    Duration : 1 h 58 min
    Bit rate : 1 891 kb/s
    Width : 1 024 pixels
    Height : 428 pixels
    Display aspect ratio : 2.40: 1
    Frame rate mode : Constant
    Frame rate : 23.976 (24000/1001) FPS
    Color space : YUV
    Chroma subsampling : 4: 2: 0
    Bit depth : 8 bits
    Scan type : Progressive
    Bits/(Pixel*Frame) : 0.180
    Stream size : 1.56 GiB (83%)
    Writing library : x264 core 146 r2538 121396c
    Encoding settings : cabac=1/ref=10/deblock=1: -2: -3/analyse=0x3: 0x113/me=umh/subme=11/psy=1/psy_rd=0.97: 0.07/mixed_ref=1/me_range=48/chroma_me=1/trellis=2/8x8dct=1/cqm=0/deadzone=21, 11/fast_pskip=1/chroma_qp_offset=-3/threads=6/lookahead_threads=1/sliced_threads=0/nr=0/decimate=1/interlaced=0/bluray_compat=0/constrained_intra=0/bframes=10/b_pyramid=2/b_adapt=2/b_bias=0/direct=3/weightb=1/open_gop=0/weightp=2/keyint=240/keyint_min=23/scenecut=40/intra_refresh=0/rc_lookahead=40/rc=2pass/mbtree=0/bitrate=1891/ratetol=1.0/qcomp=0.60/qpmin=0/qpmax=69/qpstep=4/cplxblur=20.0/qblur=0.5/vbv_maxrate=50000/vbv_bufsize=62500/nal_hrd=none/filler=0/ip_ratio=1.40/pb_ratio=1.30/aq=1: 1.00
    Language : English
    Default : Yes
    Forced : No
    Audio
    ID : 2
    Format : AC-3
    Format/Info : Audio Coding 3
    Commercial name : Dolby Digital
    Codec ID : A_AC3
    Duration : 1 h 58 min
    Bit rate mode : Constant
    Bit rate : 384 kb/s
    Channel(s) : 6 channels
    Channel layout : L R C LFE Ls Rs
    Sampling rate : 48.0 kHz
    Frame rate : 31.250 FPS (1536 SPF)
    Bit depth : 16 bits
    Compression mode : Lossy
    Stream size : 326 MiB (17%)
    Title : iTunes
    Language : Russian
    Service kind : Complete Main
    Default : Yes
    Forced : No
    Text #1
    ID : 3
    Format : UTF-8
    Codec ID : S_TEXT/UTF8
    Codec ID/Info : UTF-8 Plain Text
    Duration : 1 h 30 min
    Bit rate : 0 b/s
    Count of elements : 4
    Stream size : 209 Bytes (0%)
    Title : Forced
    Language : Russian
    Default : Yes
    Forced : No
    Text #2
    ID : 4
    Format : UTF-8
    Codec ID : S_TEXT/UTF8
    Codec ID/Info : UTF-8 Plain Text
    Duration : 1 h 57 min
    Bit rate : 88 b/s
    Count of elements : 1781
    Stream size : 76.0 KiB (0%)
    Title : Full
    Language : Russian
    Default : No
    Forced : No
    Menu
    00: 00: 00.000 : en: 00: 00: 00.000
    00: 04: 03.034 : en: 00: 04: 03.034
    00: 10: 16.407 : en: 00: 10: 16.407
    00: 13: 39.861 : en: 00: 13: 39.861
    00: 21: 25.451 : en: 00: 21: 25.451
    00: 29: 07.829 : en: 00: 29: 07.829
    00: 36: 09.084 : en: 00: 36: 09.084
    00: 40: 56.579 : en: 00: 40: 56.579
    00: 50: 17.431 : en: 00: 50: 17.431
    00: 58: 59.077 : en: 00: 58: 59.077
    01: 04: 56.434 : en: 01: 04: 56.434
    01: 12: 54.287 : en: 01: 12: 54.287
    01: 18: 32.124 : en: 01: 18: 32.124
    01: 24: 44.913 : en: 01: 24: 44.913
    01: 29: 47.340 : en: 01: 29: 47.340
    01: 36: 16.270 : en: 01: 36: 16.270
    01: 43: 35.334 : en: 01: 43: 35.334
    01: 46: 59.830 : en: 01: 46: 59.830

    Скриншоты для ознакомления



    Все одноименные релизы в Клубе
    Время раздачи: 24/7 (до появления первых 3-5 скачавших)


    Онлайн видео Человек-муравей и Оса



    Человек-муравей и Оса/Ant-Man and the Wasp (2018) HDRip [H.264]
    Рейтинг →
     (голосов: 1, оценка 5/5, голосовать можно 1 раз )

    Другие торренты по теме:

  • Человек-муравей / Ant-Man (2015) WEBRip [1080p] [Трейлер]
  • Christophe Beck - Человек-муравей / Ant-Man (2015) [AAC|WEB-DL|256 кб / с]<Score> скачать через торрент бесплатно
  • Человек-муравей / Ant-Man (2015) CamRip [H.264] [MP4|688x366] [EN] скачать через торрент бесплатно
  • Человек-муравей / Ant-Man (2015) CamRip скачать через торрент бесплатно
  • Человек-муравей / Ant-Man (2015) WEBRip [H.264 / 1080p-LQ] [EN] скачать через торрент бесплатно
  • Человек-муравей / Ant-Man (2015) WEBRip [H.264] [EN] скачать через торрент бесплатно
  • Человек-муравей / Ant-Man (2015) WEBRip [H.264 / 720p-LQ] [звук c CamRip] скачать через торрент бесплатно
  • Человек-муравей / Ant-Man (2015) WEBRip [Звук c CAMRip] скачать через торрент бесплатно


    • Комментарии (0):

      Информация

      Информация

        Посетители, находящиеся в группе Гости, не могут оставлять комментарии в данной новости.

        ↓ Меню




        ↓ Опрос

        Вы добавили сайт в закладки?
        Да
        Нет


        Top 10 за месяц (Фильмы)