.
Авторизация | Регистрация
Хочешь лучшие торренты? Добавь свой email!
Добавить

Торрент скачать бесплатно

  • support: webmaster@btracker.club
» » Мег: Монстр глубины / The Meg (2018) WEBRip [MVO] торрент скачать бесплатно


    Мег: Монстр глубины / The Meg (2018) WEBRip [MVO] торрент скачать бесплатно

    Опубликовал: fregat | Дата: 4-10-2018, 05:00 | .torrent скачали: 41

    Мег: Монстр глубины / The Meg (2018) WEBRip [MVO]Производство: США, Китай/Apelles Entertainmentm, Di Bonaventura Pictures, Flagship Entertainment Group, Gravity Pictures, Maeday Productions
    Жанр: Ужасы, Фантастика, Триллер
    Режиссер: Джон Тёртлтауб
    Продюсер: Кеннет Этчити, Белль Эйвери, Чэнь Цзе

    Актеры
    Джейсон Стэйтем, Ли Бинбин, Рэйн Уилсон, Клифф Кёртис, Уинстон Чао, Шуя Софиа Цай, Руби Роуз, Пейдж Кеннеди, Роберт Тейлор, Оулавюр Дарри Оулафссон

    Описание

    Глубоководный батискаф, осуществляющий наблюдение в рамках международной программы по изучению подводной жизни, был атакован огромным существом, которое все считали давно вымершим. Неисправный аппарат теперь лежит на дне глубочайшей впадины Тихого океана… с оказавшимся в ловушке экипажем. Их время на исходе. Китайский океанограф-новатор, несмотря на протесты его дочери Суинь, зовет спасателя-подводника Джонаса Тейлора, чтобы тот помог спасти команду и океан от невиданной угрозы — доисторической 23-метровой акулы, мегалодона. Никто и подумать не мог, что много лет назад Тейлор уже сталкивался с этим чудовищным созданием.

    Возраст: 16+ (зрителям, достигшим 16 лет)
    Рейтинг MPAA: PG-13 (детям до 13 лет просмотр нежелателен)
    Дата мировой премьеры: 8 августа 2018
    Дата российской премьеры: 9 августа 2018, Каро-Премьер
    Продолжительность: 01: 49: 10
    Качество видео: WEBRip
    Перевод: Многоголосый закадровый, профессиональный (HDrezka Studio)
    Субтитры: Корейские (вшитые)
    Видео: XviD, 1591 Кбит/с, 720x304, 24.000 FPS
    Аудио: AC3, 2 ch, 192 Kbps | Русский

    General
    Complete name : The.Meg.2018.HDTVRip.avi
    Format : AVI
    Format/Info : Audio Video Interleave
    File size : 1.37 GiB
    Duration : 1 h 49 min
    Overall bit rate : 1 792 kb/s
    Writing application : VirtualDubMod 1.5.10.3 |www.virtualdub-fr.org|| (build 2550/release)
    Writing library : VirtualDubMod build 2550/release
    Video
    ID : 0
    Format : MPEG-4 Visual
    Format profile : Advanced Simple@L5
    Format settings : BVOP2/Custom Matrix
    Format settings, BVOP : 2
    Format settings, QPel : No
    Format settings, GMC : No warppoints
    Format settings, Matrix : Custom
    Codec ID : XVID
    Codec ID/Hint : XviD
    Duration : 1 h 49 min
    Bit rate : 1 591 kb/s
    Width : 720 pixels
    Height : 304 pixels
    Display aspect ratio : 2.35: 1
    Frame rate : 24.000 FPS
    Color space : YUV
    Chroma subsampling : 4: 2: 0
    Bit depth : 8 bits
    Scan type : Progressive
    Compression mode : Lossy
    Bits/(Pixel*Frame) : 0.303
    Stream size : 1.22 GiB (89%)
    Writing library : XviD 1.2.1 (UTC 2008-12-04)
    Audio
    ID : 1
    Format : AC-3
    Format/Info : Audio Coding 3
    Codec ID : 2000
    Duration : 1 h 49 min
    Bit rate mode : Constant
    Bit rate : 192 kb/s
    Channel(s) : 2 channels
    Channel positions : Front: L R
    Sampling rate : 48.0 kHz
    Frame rate : 31.250 FPS (1536 SPF)
    Bit depth : 16 bits
    Compression mode : Lossy
    Stream size : 150 MiB (11%)
    Alignment : Split accross interleaves
    Interleave, duration : 42 ms (1.00 video frame)
    Interleave, preload duratio : 500 ms
    Service kind : Complete Main

    Скриншоты для ознакомления



    Все одноименные релизы в Клубе
    Время раздачи: 24/7 (круглосуточно) (до появления первых 3-5 скачавших)


    Онлайн видео Мег: Монстр глубины



    Мег: Монстр глубины/The Meg (2018) WEBRip [MVO]
    Рейтинг →
     (голосов: 1, оценка 3/5, голосовать можно 1 раз )

    Другие торренты по теме:

  • Мег: Монстр глубины / The Meg (2018) CamRip [AD]
  • Мег: Монстр глубины / The Meg (2018) WEBRip [H.264 / 1080p-LQ] [EN / KOR Sub]
  • Мег: Монстр глубины / The Meg (2018) WEBRip [H.264 / 1080p-LQ] [MVO, AD]
  • Мег: Монстр глубины / The Meg (2018) WEBRip [Звук с TS] [AD]
  • Мег: Монстр глубины / The Meg (2018) WEBRip [H.264 / 720p-LQ] [Звук с TS] [AD]
  • Мег: Монстр глубины / The Meg (2018) WEBRip [H.264 / 1080p-LQ] [MVO]
  • Мег: Монстр глубины / The Meg (2018) WEBRip [H.264 / 720p-LQ] [MVO]
  • Мег: Монстр глубины / The Meg (2018) WEB-DL [H.264 / 720p-LQ]


    • Комментарии (0):

      Информация

      Информация

        Посетители, находящиеся в группе Гости, не могут оставлять комментарии в данной новости.

        ↓ Меню




        ↓ Опрос

        Вы добавили сайт в закладки?
        Да
        Нет


        Top 10 за месяц (Фильмы)