.
Авторизация | Регистрация
Хочешь лучшие торренты? Добавь свой email!
Добавить

Торрент скачать бесплатно

  • support: webmaster@btracker.club
» » Домашний арест (2018) WEB-DL [H.264 / 720p-LQ] (серии 1-7 из 16) (обновляемая) торрент скачать бесплатно


    Домашний арест (2018) WEB-DL [H.264 / 720p-LQ] (серии 1-7 из 16) (обновляемая) торрент скачать бесплатно

    Опубликовал: fregat | Дата: 25-09-2018, 05:00 | .torrent скачали: 109

    Домашний арест (2018) WEB-DL [H.264 / 720p-LQ] (серии 1-7 из 16) (обновляемая)Производство: Россия/Comedy Club Production
    Жанр: комедия
    Режиссер: Петр Буслов

    Актеры
    Павел Деревянко, Александр Робак, Егор Клинаев, Юлия Сорокина, Анна Уколова, Тимофей Трибунцев, Марина Александрова, Сергей Бурунов, Илья Коврижных, Виктория Самилкина, Анатолий Кот и др.

    Описание

    Мэр небольшого города попался на взятке и в качестве меры пресечения ему назначен домашний арест по месту прописки. Коллизия в том, что, чтобы казаться скромнее, чиновник прописан не в своем особняке, а в коммунальной квартире, в которой когда-то родился и вырос. Так он попадает в коммунальный ад своей старой квартиры. Он больше не главный и сам в свою очередь оказывается во власти простых обитателей коммуналки.

    Возраст: 16+ (зрителям, достигшим 16 лет)
    Дата российской премьеры: 16 августа 2018
    Продолжительность: ~01: 08: 00 серия
    Качество видео: WEB-DL
    Видео: AVC/H.264, 1280x720, ~2435 kbps
    Аудио: AC3, 2 ch, 192 kbps

    Общее
    Уникальный идентификатор : 241830571675393051383005184230424874122 (0xB5EEDFBAE9547D048190AB971E648C8A)
    Полное имя : D: torrentDomashniy.Arest.2018.WEB-DL.720pDomashniy.Arest.e01.(2018).WEB-DL.720p.mkv
    Формат : Matroska
    Версия формата : Version 2
    Размер файла : 1, 26 Гбайт
    Продолжительность : 1 ч. 7 м.
    Режим общего битрейта : Постоянный
    Общий поток : 2679 Кбит/сек
    Дата кодирования : UTC 2018-09-14 14: 32: 14
    Программа кодирования : mkvmerge v5.8.0 (\'No Sleep/Pillow\') built on Sep 2 2012 15: 37: 04
    Библиотека кодирования : libebml v1.2.3 + libmatroska v1.3.0
    Видео
    Идентификатор : 1
    Формат : AVC
    Формат/Информация : Advanced Video Codec
    Профиль формата : Baseline@L4
    Настройки формата : 4 Ref Frames
    Параметр CABAC формата : Нет
    Параметр RefFrames формата : 4 кадра
    Идентификатор кодека : V_MPEG4/ISO/AVC
    Продолжительность : 1 ч. 7 м.
    Вид битрейта : Постоянный
    Битрейт : 2433 Кбит/сек
    Номинальный битрейт : 2600 Кбит/сек
    Ширина : 1280 пикселей
    Высота : 720 пикселей
    Соотношение сторон : 16: 9
    Режим частоты кадров : Постоянный
    Частота кадров : 25, 000 кадров/сек
    Стандарт вещания : PAL
    Цветовое пространство : YUV
    Субдискретизация насыщенности : 4: 2: 0
    Битовая глубина : 8 бит
    Тип развёртки : Прогрессивная
    Бит/(Пиксели*Кадры) : 0.106
    Размер потока : 1, 15 Гбайт (91%)
    Язык : Russian
    Default : Да
    Forced : Да
    Цветовой диапазон : Limited
    Основные цвета : BT.709
    Характеристики трансфера : BT.709
    Коэффициенты матрицы : BT.709
    Аудио
    Идентификатор : 2
    Формат : AC-3
    Формат/Информация : Audio Coding 3
    Коммерческое название : Dolby Digital
    Идентификатор кодека : A_AC3
    Продолжительность : 1 ч. 7 м.
    Вид битрейта : Постоянный
    Битрейт : 192 Кбит/сек
    Каналы : 2 канала
    Channel layout : L R
    Частота : 48, 0 КГц
    Частота кадров : 31, 250 кадров/сек (1536 SPF)
    Битовая глубина : 16 бит
    Метод сжатия : С потерями
    Размер потока : 92, 8 Мбайт (7%)
    Язык : Russian
    ServiceKind/String : Complete Main
    Default : Да
    Forced : Да


    Онлайн видео Домашний арест (2018) WEB-DL [H.264



    Домашний арест (2018) WEB-DL [H.264/720p-LQ] (серии 1-7 из 16) (обновляемая)
    Рейтинг →
     (голосов: 1, оценка 4/5, голосовать можно 1 раз )

    Другие торренты по теме:

  • Домашний арест / House Arrest (1996) DVDRip [H.264]
  • Домашний арест (2018) WEB-DLRip (серии 1 из 16) (обновляемая)
  • Домашний арест (2018) WEB-DLRip [H.264 / 1080p-LQ] (серии 1 из 16) (обновляемая)
  • Домашний арест (2018) WEB-DLRip [H.264 / 1080p-LQ] (серии 2-3 из 16) (обновляемая) [AD] [PR]
  • Домашний арест (2018) WEB-DLRip [H.264] (серии 1-7 из 16) (обновляемая)
  • Домашний арест (2018) WEB-DL [1080p] (сезон 1, серии 1-12 из 12) ATV
  • Домашний арест. Фильм о съёмках (2018) WEB-DL [H.264 / 1080p-LQ] (выпуски 1-22 из 22)


    • Комментарии (0):

      Информация

      Информация

        Посетители, находящиеся в группе Гости, не могут оставлять комментарии в данной новости.

        ↓ Меню




        ↓ Опрос

        Вы добавили сайт в закладки?
        Да
        Нет


        Top 10 за месяц (Фильмы)