.
Авторизация | Регистрация

Торрент скачать бесплатно

  • support: webmaster@btracker.club
» » Бесстыдники / Бесстыжие / Shameless (US) (2018) WEB-DLRip (сезон 9, серии 1 из 14) AlexFilm (обновляемая) торрент скачать бесплатно


    Бесстыдники / Бесстыжие / Shameless (US) (2018) WEB-DLRip (сезон 9, серии 1 из 14) AlexFilm (обновляемая) торрент скачать бесплатно

    Дата: 11-09-2018, 05:00 | .torrent скачали: 220

    Бесстыдники / Бесстыжие / Shameless (US) (2018) WEB-DLRip (сезон 9, серии 1 из 14) AlexFilm (обновляемая)Производство: США/Bonanza Productions, John Wells Productions, Warner Bros. Television
    Жанр: драма, комедия
    Режиссер: Марк Майлод

    Актеры
    Уильям Х. Мэйси, Эмми Россам, Итан Каткоски, Шанола Хэмптон, Джереми Аллен Уайт, Стив Хоуи, Эмма Кинни, Камерон Монахэн, Майкл Патрик МакГилл, Исидора Горештер и др.

    Описание

    В новом сезон любимого сериалае Фрэнка ждут неожиданные испытания, справиться с которыми ему поможет только семья. Галлагеры неизменно сплачиваются, когда кому-то и них грозят по настоящему серьезные неприятности.
    В 9 сезон любимого сериалае будут логически завершены все линии героев. Скорее всего, Бесстыдники 9 сезон любимого сериала - финал проекта.

    Возраст: 18+ (зрителям, достигшим 18 лет. запрещено для детей)
    Продолжительность: ~00: 55: 00 серия
    Качество видео: WEB-DLRip
    Перевод: Многоголосый закадровый, профессиональный -AlexFilm
    Внимание! Присутствует ненормативная лексика.
    Видео: XviD, 720x400 (16: 9), ~1519 kbps
    Аудио 1: MP3, 2 ch, 128 kbps — русский, многоголосый закадровый
    Аудио 2: MP3, 2 ch, 128 kbps — английский

    Общее
    Полное имя : D: Бесстыжие (сезон любимого сериала 9) Shameless (2018) WEB-DLRip - AlexFilmShameless.US.S09E01.WEB-DLRip.Rus.Eng.DV.AlexFilm.avi
    Формат : AVI
    Формат/Информация : Audio Video Interleave
    Размер файла : 707 Мбайт
    Продолжительность : 55 м. 14 с.
    Общий поток : 1789 Кбит/сек
    Название фильма : Shameless.US.S09E01.WEB-DLRip.Rus.Eng.DV.AlexFilm/NNM-Club
    Программа кодирования : VirtualDubModRus 1.5.10.2 (build 2542/release)
    Библиотека кодирования : VirtualDubMod build 2542/release
    Видео
    Идентификатор : 0
    Формат : MPEG-4 Visual
    Профиль формата : Advanced Simple@L5
    Настройки формата : BVOP2
    Параметр BVOP формата : 2
    Параметр QPel формата : Нет
    Параметр GMC формата : Без точки перехода
    Параметр матрицы формата : Default (H.263)
    Идентификатор кодека : XVID
    Идентификатор кодека/Подсказка : XviD
    Продолжительность : 55 м. 14 с.
    Битрейт : 1519 Кбит/сек
    Ширина : 720 пикселей
    Высота : 400 пикселей
    Соотношение сторон : 16: 9
    Частота кадров : 23, 976 (24000/1001) кадра/сек
    Цветовое пространство : YUV
    Субдискретизация насыщенности : 4: 2: 0
    Битовая глубина : 8 бит
    Тип развёртки : Прогрессивная
    Метод сжатия : С потерями
    Бит/(Пиксели*Кадры) : 0.220
    Размер потока : 600 Мбайт (85%)
    Заголовок : Rip by DriverV/NNM-Club
    Библиотека кодирования : XviD 67
    Аудио #1
    Идентификатор : 1
    Формат : MPEG Audio
    Версия формата : Version 1
    Профиль формата : Layer 3
    Настройки формата : Joint stereo/MS Stereo
    Идентификатор кодека : 55
    Идентификатор кодека/Подсказка : MP3
    Продолжительность : 55 м. 14 с.
    Вид битрейта : Постоянный
    Битрейт : 128 Кбит/сек
    Каналы : 2 канала
    Частота : 48, 0 КГц
    Метод сжатия : С потерями
    Размер потока : 50, 6 Мбайт (7%)
    Выравнивание : Соединение по промежуткам
    Продолжительность промежутка : 42 мс. (1, 00 видеокадр)
    Время предзагрузки промежутка : 504 мс.
    Аудио #2
    Идентификатор : 2
    Формат : MPEG Audio
    Версия формата : Version 1
    Профиль формата : Layer 3
    Настройки формата : Joint stereo/MS Stereo
    Идентификатор кодека : 55
    Идентификатор кодека/Подсказка : MP3
    Продолжительность : 55 м. 14 с.
    Вид битрейта : Постоянный
    Битрейт : 128 Кбит/сек
    Каналы : 2 канала
    Частота : 48, 0 КГц
    Метод сжатия : С потерями
    Размер потока : 50, 6 Мбайт (7%)
    Выравнивание : Соединение по промежуткам
    Продолжительность промежутка : 42 мс. (1, 00 видеокадр)
    Время предзагрузки промежутка : 504 мс.


    Онлайн видео Бесстыдники



    Бесстыдники/Бесстыжие/Shameless (US) (2018) WEB-DLRip (сезон 9, серии 1 из 14) AlexFilm (обновляемая)
    Рейтинг →
     (голосов: 1, оценка 3/5, голосовать можно 1 раз )

    Другие торренты по теме:

  • Бесстыдники / Бесстыжие / Shameless (US) (2016) HDTVRip [H.264 / 720p-LQ] (сезон 6, серии 1 из 12) AlexFilm (обновляемая) скачать через торрент бесплатно
  • Бесстыдники / Бесстыжие / Shameless (US) (2016) HDTVRip (сезон 6, серии 1 из 12) AlexFilm (обновляемая) скачать через торрент бесплатно
  • Бесстыдники / Бесстыжие / Shameless (US) (2016) HDTVRip (сезон 6, серии 1-9 из 12) (AlexFilm) (обновляемая)
  • Бесстыдники / Бесстыжие / Shameless (US) (2016) HDTVRip [H.264 / 720p-LQ] (сезон 7, серия 1 из 12) AlexFilm (обновляемая)
  • Бесстыдники / Бесстыжие / Shameless (US) (2016) HDTVRip (сезон 7, серии 1 из 12) AlexFilm (обновляемая)
  • Бесстыдники / Бесстыжие / Shameless (US) (2017) WEB-DL [H.264 / 720p-LQ] (сезон 8, серии 1 из 12) AlexFilm (обновляемая)
  • Бесстыдники / Бесстыжие / Shameless (US) (2017) WEB-DLRip (сезон 8, серии 1-2 из 12) AlexFilm (Обновляемая)
  • Бесстыдники / Бесстыжие / Shameless (US) (2017) WEB-DLRip (сезон 8, серии 1-4 из 12) AlexFilm (обновляемая)


    • Комментарии (0):

      Информация

      Информация

        Посетители, находящиеся в группе Гости, не могут оставлять комментарии в данной новости.

        ↓ Меню




        ↓ Опрос

        Вы добавили сайт в закладки?
        Да
        Нет


        Top 10 за месяц (Фильмы)