.
Авторизация | Регистрация
Хочешь лучшие торренты? Добавь свой email!
Добавить

Торрент скачать бесплатно

  • support: webmaster@btracker.club
» » Гоголь. Страшная месть (2018) CamRip [AD] торрент скачать бесплатно


    Гоголь. Страшная месть (2018) CamRip [AD] торрент скачать бесплатно

    Опубликовал: fregat | Дата: 1-09-2018, 05:00 | .torrent скачали: 134

    Гоголь. Страшная месть (2018) CamRip [AD]Производство: Россия/Продюсерская компания Среда
    Жанр: Детектив, Приключения, Триллер
    Режиссер: Егор Баранов
    Продюсер: Александр Цекало, Артур Джанибекян, Валерий Федорович

    Актеры
    Александр Петров, Олег Меньшиков, Евгений Стычкин, Артем Сучков, Таисия Вилкова, Юлия Франц, Ян Цапник, Евгений Сытый, Сергей Бадюк, Артем Ткаченко

    Описание

    Две сотни лет назад малороссийские хутора разоряла шайка нехристей-ляхов во главе с могущественным колдуном. С тех пор рыщет в окрестностях Диканьки неизвестный Чёрный Всадник, ловит молодых девушек и жестоко расправляется с ними, будто мстит за что. И следующей его жертвой может стать Лиза. Чтобы спасти возлюбленную, писарь Николай Гоголь должен разбить злые чары и победить древнее проклятье. Ни одному из смертных ещё не удавалось это, но к счастью, на помощь Гоголю приходит гениальный столичный сыщик Яков Гуро, и у него уже есть главный подозреваемый…

    Возраст: 16+ (зрителям, достигшим 16 лет)
    Дата российской премьеры: 30 августа 2018, Каропрокат
    Продолжительность: 01: 45: 30
    Качество видео: CamRip
    Перевод: Не требуется
    Субтитры: Отсутствуют
    Реклама: Присутствуют видео, аудио и текстовые вставки рекламы
    Видео: AVC/H.264, 1280x536 (2.40: 1), ~3720 Kbps
    Аудио: AC3, 2 ch, 384 Kbps

    Общее
    Уникальный идентификатор : 179084963603474123881636017350929479084 (0x86BA8267FECE6463974163D78926F5AC)
    Полное имя : /Users/Гоголь.Страшная.месть.2018.CAMRip.mkv
    Формат : Matroska
    Версия формата : Version 2
    Размер файла : 3, 03 Гбайт
    Продолжительность : 1 ч. 45 м.
    Режим общего битрейта : Переменный
    Общий поток : 4106 Кбит/сек
    Дата кодирования : UTC 2018-08-31 04: 24: 18
    Программа кодирования : mkvmerge v8.3.0 ('Over the Horizon') 64bit
    Библиотека кодирования : libebml v1.3.1 + libmatroska v1.4.2
    Видео
    Идентификатор : 1
    Формат : AVC
    Формат/Информация : Advanced Video Codec
    Профиль формата : High@L4.1
    Настройки формата : CABAC/4 Ref Frames
    Параметр CABAC формата : Да
    Параметр ReFrames формата : 4 кадра
    Идентификатор кодека : V_MPEG4/ISO/AVC
    Продолжительность : 1 ч. 45 м.
    Вид битрейта : Переменный
    Битрейт : 3720 Кбит/сек
    Максимальный битрейт : 4000 Кбит/сек
    Ширина : 1280 пикселей
    Высота : 536 пикселей
    Соотношение сторон : 2, 40: 1
    Режим частоты кадров : Постоянный
    Частота кадров : 23, 976 (24000/1001) кадра/сек
    Стандарт вещания : Component
    Цветовое пространство : YUV
    Субдискретизация насыщенности : 4: 2: 0
    Битовая глубина : 8 бит
    Тип развёртки : Прогрессивная
    Бит/(Пиксели*Кадры) : 0.226
    Размер потока : 2, 74 Гбайт (91%)
    Default : Да
    Forced : Нет
    Цветовой диапазон : Limited
    Основные цвета : BT.709
    Характеристики трансфера : BT.709
    Коэффициенты матрицы : BT.709
    Аудио
    Идентификатор : 2
    Формат : AC-3
    Формат/Информация : Audio Coding 3
    Идентификатор кодека : A_AC3
    Продолжительность : 1 ч. 45 м.
    Вид битрейта : Постоянный
    Битрейт : 384 Кбит/сек
    Каналы : 2 канала
    Расположение каналов : Front: L R
    Частота : 48, 0 КГц
    Частота кадров : 31, 250 кадров/сек (1536 SPF)
    Битовая глубина : 16 бит
    Метод сжатия : С потерями
    Размер потока : 290 Мбайт (9%)
    Service kind : Complete Main
    Default : Да
    Forced : Нет

    Скриншоты для ознакомления



    Все одноименные релизы в Клубе
    Время раздачи: 24/7 (круглосуточно) (до появления первых 3-5 скачавших)


    Онлайн видео Голубая игуана



    Гоголь. Страшная месть (2018) CamRip [AD]
    Рейтинг →
     (голосов: 1, оценка 4/5, голосовать можно 1 раз )

    Другие торренты по теме:

  • Николай Гоголь | Страшная месть (2011) [MP3]
  • Николай Гоголь | Страшная месть (1994) [MP3]
  • Гоголь. Страшная месть (2018) WEB-DLRip
  • Гоголь. Страшная месть (2018) WEB-DL [H.264 / 1080p-LQ]
  • Гоголь. Страшная месть (2018) WEB-DL [1080p] ATV
  • Гоголь. Страшная месть (2018) WEB-DLRip [H.264 / 720p-LQ]
  • Гоголь. Страшная месть (2018) WEB-DLRip [H.264]
  • Гоголь. Страшная месть (2018) WEB-DLRip [576p] iPad


    • Комментарии (0):

      Информация

      Информация

        Посетители, находящиеся в группе Гости, не могут оставлять комментарии в данной новости.

        ↓ Меню




        ↓ Опрос

        Вы добавили сайт в закладки?
        Да
        Нет


        Top 10 за месяц (Фильмы)