.
Авторизация | Регистрация
Хочешь лучшие торренты? Добавь свой email!
Добавить

Торрент скачать бесплатно

  • support: webmaster@btracker.club
» » Домашний арест (2018) WEB-DLRip [H.264 / 1080p-LQ] (серии 2-3 из 16) (обновляемая) [AD] [PR] торрент скачать бесплатно


    Домашний арест (2018) WEB-DLRip [H.264 / 1080p-LQ] (серии 2-3 из 16) (обновляемая) [AD] [PR] торрент скачать бесплатно

    Опубликовал: fregat | Дата: 25-08-2018, 05:00 | .torrent скачали: 75

    Домашний арест (2018) WEB-DLRip [H.264 / 1080p-LQ] (серии 2-3 из 16) (обновляемая) [AD] [PR]Производство: Россия/Comedy Club Production
    Жанр: комедия
    Режиссер: Петр Буслов

    Актеры
    Павел Деревянко, Александр Робак, Егор Клинаев, Юлия Сорокина, Анна Уколова, Тимофей Трибунцев, Марина Александрова, Сергей Бурунов, Илья Коврижных, Виктория Самилкина, Анатолий Кот и др.

    Описание

    Мэр небольшого города попался на взятке и в качестве меры пресечения ему назначен домашний арест по месту прописки. Коллизия в том, что, чтобы казаться скромнее, чиновник прописан не в своем особняке, а в коммунальной квартире, в которой когда-то родился и вырос. Так он попадает в коммунальный ад своей старой квартиры. Он больше не главный и сам в свою очередь оказывается во власти простых обитателей коммуналки.

    Возраст: 16+ (зрителям, достигшим 16 лет)
    Дата российской премьеры: 16 августа 2018
    Продолжительность: ~01: 10: 00 серия
    Качество видео: WEB-DLRip
    Реклама: присутствуют текстовые, видео, аудио вставки рекламы
    Видео: AVC/H.264, 1920x1080 (16: 9), ~4700 Kbps
    Аудио: AC3, 2 ch, 384 Kbps

    Общее
    Уникальный идентификатор : 188750352323742459647284969952195917144 (0x8DFFFEDCB7E1141097BD2B38F8E83558)
    Полное имя : D: Домашний арест (2018)Серия 02.mkv
    Формат : Matroska
    Версия формата : Version 2
    Размер файла : 2, 72 Гбайт
    Продолжительность : 1 ч. 16 м.
    Режим общего битрейта : Переменный
    Общий поток : 5084 Кбит/сек
    Дата кодирования : UTC 2018-08-19 16: 05: 19
    Программа кодирования : mkvmerge v8.3.0 ('Over the Horizon') 64bit
    Библиотека кодирования : libebml v1.3.1 + libmatroska v1.4.2
    Видео
    Идентификатор : 1
    Формат : AVC
    Формат/Информация : Advanced Video Codec
    Профиль формата : High@L4.1
    Настройки формата : CABAC/4 Ref Frames
    Параметр CABAC формата : Да
    Параметр RefFrames формата : 4 кадра
    Идентификатор кодека : V_MPEG4/ISO/AVC
    Продолжительность : 1 ч. 16 м.
    Вид битрейта : Переменный
    Битрейт : 4698 Кбит/сек
    Максимальный битрейт : 5500 Кбит/сек
    Ширина : 1920 пикселей
    Высота : 1080 пикселей
    Соотношение сторон : 16: 9
    Режим частоты кадров : Постоянный
    Частота кадров : 23, 976 (24000/1001) кадра/сек
    Стандарт вещания : Component
    Цветовое пространство : YUV
    Субдискретизация насыщенности : 4: 2: 0
    Битовая глубина : 8 бит
    Тип развёртки : Прогрессивная
    Бит/(Пиксели*Кадры) : 0.094
    Размер потока : 2, 51 Гбайт (92%)
    Default : Да
    Forced : Нет
    Цветовой диапазон : Limited
    Основные цвета : BT.709
    Характеристики трансфера : BT.709
    Коэффициенты матрицы : BT.709
    Аудио
    Идентификатор : 2
    Формат : AC-3
    Формат/Информация : Audio Coding 3
    Идентификатор кодека : A_AC3
    Продолжительность : 1 ч. 16 м.
    Вид битрейта : Постоянный
    Битрейт : 384 Кбит/сек
    Каналы : 2 канала
    Расположение каналов : Front: L R
    Частота : 48, 0 КГц
    Частота кадров : 31, 250 кадров/сек (1536 SPF)
    Битовая глубина : 16 бит
    Метод сжатия : С потерями
    Размер потока : 210 Мбайт (8%)
    ServiceKind/String : Complete Main
    Default : Да
    Forced : Нет


    Онлайн видео Домашний арест (2018) WEB-DLRip [H.264



    Домашний арест (2018) WEB-DLRip [H.264/1080p-LQ] (серии 2-3 из 16) (обновляемая) [AD] [PR]
    Рейтинг →
     (голосов: 1, оценка 4/5, голосовать можно 1 раз )

    Другие торренты по теме:



      Комментарии (0):

      Информация

      Информация

        Посетители, находящиеся в группе Гости, не могут оставлять комментарии в данной новости.

        ↓ Меню




        ↓ Опрос

        Вы добавили сайт в закладки?
        Да
        Нет


        Top 10 за месяц (Фильмы)