.
Авторизация | Регистрация
Хочешь лучшие торренты? Добавь свой email!
Добавить

Торрент скачать бесплатно

  • support: webmaster@btracker.club
» » Домашний арест (2018) WEB-DLRip [H.264 / 1080p-LQ] (серии 1 из 16) (обновляемая) торрент скачать бесплатно


    Домашний арест (2018) WEB-DLRip [H.264 / 1080p-LQ] (серии 1 из 16) (обновляемая) торрент скачать бесплатно

    Опубликовал: fregat | Дата: 18-08-2018, 05:00 | .torrent скачали: 95

    Домашний арест (2018) WEB-DLRip [H.264 / 1080p-LQ] (серии 1 из 16) (обновляемая)Производство: Россия/Comedy Club Production
    Жанр: комедия
    Режиссер: Петр Буслов

    Актеры
    Павел Деревянко, Александр Робак, Егор Клинаев, Юлия Сорокина, Анна Уколова, Тимофей Трибунцев, Марина Александрова, Сергей Бурунов, Илья Коврижных, Виктория Самилкина, Анатолий Кот и др.

    Описание

    Мэр небольшого города попался на взятке и в качестве меры пресечения ему назначен домашний арест по месту прописки. Коллизия в том, что, чтобы казаться скромнее, чиновник прописан не в своем особняке, а в коммунальной квартире, в которой когда-то родился и вырос. Так он попадает в коммунальный ад своей старой квартиры. Он больше не главный и сам в свою очередь оказывается во власти простых обитателей коммуналки.

    Возраст: 16+ (зрителям, достигшим 16 лет)
    Дата российской премьеры: 16 августа 2018
    Релиз от: Алехаndr
    Продолжительность: ~01: 05: 00 серия
    Качество видео: WEB-DLRip
    Видео: AVC/H.264, 1920x1080 (16: 9), ~2620 Kbps
    Аудио: AC3, 2 ch, 192 Kbps

    Общее
    Уникальный идентификатор : 308489763710323782835369264526381204228 (0xE814F7A407F464E7082839CEB606C304)
    Полное имя : D: Домашний арест (2018).by.АлехаndrСерия 01.by.Алехаndr.mkv
    Формат : Matroska
    Версия формата : Version 4/Version 2
    Размер файла : 1, 33 Гбайт
    Продолжительность : 1 ч. 7 м.
    Общий поток : 2813 Кбит/сек
    Дата кодирования : UTC 2018-08-17 13: 14: 52
    Программа кодирования : mkvmerge v25.0.0 ('Prog Noir') 64-bit
    Библиотека кодирования : libebml v1.3.6 + libmatroska v1.4.9/Lavf57.71.100
    Видео
    Идентификатор : 1
    Формат : AVC
    Формат/Информация : Advanced Video Codec
    Профиль формата : High@L4
    Настройки формата : CABAC/2 Ref Frames
    Параметр CABAC формата : Да
    Параметр RefFrames формата : 2 кадра
    Идентификатор кодека : V_MPEG4/ISO/AVC
    Продолжительность : 1 ч. 7 м.
    Битрейт : 2619 Кбит/сек
    Ширина : 1920 пикселей
    Высота : 1080 пикселей
    Соотношение сторон : 16: 9
    Режим частоты кадров : Постоянный
    Частота кадров : 25, 000 кадров/сек
    Цветовое пространство : YUV
    Субдискретизация насыщенности : 4: 2: 0
    Битовая глубина : 8 бит
    Тип развёртки : Прогрессивная
    Бит/(Пиксели*Кадры) : 0.051
    Размер потока : 1, 24 Гбайт (93%)
    Default : Да
    Forced : Нет
    Цветовой диапазон : Limited
    Основные цвета : BT.709
    Характеристики трансфера : BT.709
    Коэффициенты матрицы : BT.709
    Аудио
    Идентификатор : 2
    Формат : AC-3
    Формат/Информация : Audio Coding 3
    Идентификатор кодека : A_AC3
    Продолжительность : 1 ч. 7 м.
    Вид битрейта : Постоянный
    Битрейт : 192 Кбит/сек
    Каналы : 2 канала
    Расположение каналов : Front: L R
    Частота : 48, 0 КГц
    Частота кадров : 31, 250 кадров/сек (1536 SPF)
    Битовая глубина : 16 бит
    Метод сжатия : С потерями
    Размер потока : 92, 9 Мбайт (7%)
    Язык : English
    ServiceKind/String : Complete Main
    Default : Да
    Forced : Нет


    Онлайн видео Домашний арест (2018) WEB-DLRip [H.264



    Домашний арест (2018) WEB-DLRip [H.264/1080p-LQ] (серии 1 из 16) (обновляемая)
    Рейтинг →
     (голосов: 1, оценка 5/5, голосовать можно 1 раз )

    Другие торренты по теме:

  • Домашний арест / House Arrest (1996) DVDRip [H.264]
  • Домашний арест (2018) WEB-DLRip (серии 1 из 16) (обновляемая)
  • Домашний арест (2018) WEB-DLRip [H.264 / 1080p-LQ] (серии 2-3 из 16) (обновляемая) [AD] [PR]
  • Домашний арест (2018) WEB-DL [H.264 / 720p-LQ] (серии 1-7 из 16) (обновляемая)
  • Домашний арест (2018) WEB-DLRip [H.264] (серии 1-7 из 16) (обновляемая)
  • Домашний арест (2018) WEB-DL [1080p] (сезон 1, серии 1-12 из 12) ATV
  • Домашний арест. Фильм о съёмках (2018) WEB-DL [H.264 / 1080p-LQ] (выпуски 1-22 из 22)


    • Комментарии (0):

      Информация

      Информация

        Посетители, находящиеся в группе Гости, не могут оставлять комментарии в данной новости.

        ↓ Меню




        ↓ Опрос

        Вы добавили сайт в закладки?
        Да
        Нет


        Top 10 за месяц (Фильмы)