.
Авторизация | Регистрация
Хочешь лучшие торренты? Добавь свой email!
Добавить

Торрент скачать бесплатно

  • support: webmaster@btracker.club
» » Домашний арест (2018) WEB-DLRip (серии 1 из 16) (обновляемая) торрент скачать бесплатно


    Домашний арест (2018) WEB-DLRip (серии 1 из 16) (обновляемая) торрент скачать бесплатно

    Опубликовал: fregat | Дата: 18-08-2018, 05:00 | .torrent скачали: 47

    Домашний арест (2018) WEB-DLRip (серии 1 из 16) (обновляемая)Производство: Россия/Comedy Club Production
    Жанр: комедия
    Режиссер: Петр Буслов

    Актеры
    Павел Деревянко, Александр Робак, Егор Клинаев, Юлия Сорокина, Анна Уколова, Тимофей Трибунцев, Марина Александрова, Сергей Бурунов, Илья Коврижных, Виктория Самилкина, Анатолий Кот и др.

    Описание

    Мэр небольшого города попался на взятке и в качестве меры пресечения ему назначен домашний арест по месту прописки. Коллизия в том, что, чтобы казаться скромнее, чиновник прописан не в своем особняке, а в коммунальной квартире, в которой когда-то родился и вырос. Так он попадает в коммунальный ад своей старой квартиры. Он больше не главный и сам в свою очередь оказывается во власти простых обитателей коммуналки.

    Возраст: 16+ (зрителям, достигшим 16 лет)
    Дата российской премьеры: 16 августа 2018
    Релиз от: Алехаndr
    Продолжительность: ~01: 05: 00 серия
    Качество видео: WEB-DLRip
    Видео: Xvid, 720x400 (16: 9), ~1415 Kbps
    Аудио: AC3, 2 ch, 192 Kbps

    Общее
    Полное имя : D: Домашний арест (2018). WEB-DLRip.by.АлехаndrСерия 01.by.Алехаndr.avi
    Формат : AVI
    Формат/Информация : Audio Video Interleave
    Размер файла : 782 Мбайт
    Продолжительность : 1 ч. 7 м.
    Общий поток : 1616 Кбит/сек
    Программа кодирования : Lavf57.41.100
    Видео
    Идентификатор : 0
    Формат : xvid
    Идентификатор кодека : xvid
    Продолжительность : 1 ч. 7 м.
    Битрейт : 1413 Кбит/сек
    Ширина : 720 пикселей
    Высота : 400 пикселей
    Соотношение сторон : 16: 9
    Частота кадров : 25, 000 кадров/сек
    Тип развёртки : Прогрессивная
    Бит/(Пиксели*Кадры) : 0.196
    Размер потока : 683 Мбайт (87%)
    Аудио
    Идентификатор : 1
    Формат : AC-3
    Формат/Информация : Audio Coding 3
    Идентификатор кодека : 2000
    Продолжительность : 1 ч. 7 м.
    Вид битрейта : Постоянный
    Битрейт : 192 Кбит/сек
    Каналы : 2 канала
    Расположение каналов : Front: L R
    Частота : 48, 0 КГц
    Частота кадров : 31, 250 кадров/сек (1536 SPF)
    Битовая глубина : 16 бит
    Метод сжатия : С потерями
    Размер потока : 92, 9 Мбайт (12%)
    Выравнивание : Соединение по промежуткам
    Продолжительность промежутка : 32 мс. (0, 80 видеокадр)
    ServiceKind/String : Complete Main


    Онлайн видео Домашний арест (2018) WEB



    Домашний арест (2018) WEB-DLRip (серии 1 из 16) (обновляемая)
    Рейтинг →
     (голосов: 1, оценка 3/5, голосовать можно 1 раз )

    Другие торренты по теме:

  • Домашний арест / House Arrest (1996) DVDRip [H.264]
  • Домашний арест (2018) WEB-DLRip [H.264 / 1080p-LQ] (серии 1 из 16) (обновляемая)
  • Домашний арест (2018) WEB-DLRip [H.264 / 1080p-LQ] (серии 2-3 из 16) (обновляемая) [AD] [PR]


    • Комментарии (0):

      Информация

      Информация

        Посетители, находящиеся в группе Гости, не могут оставлять комментарии в данной новости.

        ↓ Меню




        ↓ Опрос

        Вы добавили сайт в закладки?
        Да
        Нет


        Top 10 за месяц (Фильмы)