.
Авторизация | Регистрация
Хочешь лучшие торренты? Добавь свой email!
Добавить

Торрент скачать бесплатно

  • support: webmaster@btracker.club
» » Лесник. Своя земля (2017-2018) SATRip (сезон 4, серии 1-12 из 60) (обновляемая) [AD] торрент скачать бесплатно


    Лесник. Своя земля (2017-2018) SATRip (сезон 4, серии 1-12 из 60) (обновляемая) [AD] торрент скачать бесплатно

    Опубликовал: fregat | Дата: 17-07-2018, 05:00 | .torrent скачали: 0

    Лесник. Своя земля (2017-2018) SATRip (сезон 4, серии 1-12 из 60) (обновляемая) [AD]Производство: Россия/Мостелефильм дистрибьюшн
    Жанр: детектив
    Режиссер: Виктор Конисевич, Иван Щёголев

    Актеры
    Олег Штефанко, Анна Большова, Алексей Булдаков, Нина Гогаева, Михаил Васьков, Александр Тютин, Владимир Тимофеев, Николай Сморчков, Вадим Александров, Михаил Солодко и др.

    Описание

    У главного персонажа Леонида Зубова появляется новый враг — смотрящий по Навлинскому району, авторитет Саша Рафинад. Зубов хорошо знаком с ним — они отбывали срок в одной зоне, где Рафинад числился авторитетом. А так как основной доходный бизнес района — лес, то конфликт между лесником и смотрящим стремительно переходит в войну.

    Возраст: 16+ (зрителям, достигшим 16 лет)
    Продолжительность: ~00: 45: 00 серия
    Качество видео: SATRip
    Реклама: присутствуют текстовые вставки рекламы
    Видео: Xvid, 720x400 (16: 9), ~1800 Kbps
    Аудио: MP3, 2 ch, 128 Kbps

    Общее
    Полное имя : G: Лесник (2017-2018)Серия 01.avi
    Формат : AVI
    Формат/Информация : Audio Video Interleave
    Размер файла : 621 Мбайт
    Продолжительность : 44 м. 43 с.
    Общий поток : 1942 Кбит/сек
    Видео
    Идентификатор : 0
    Формат : MPEG-4 Visual
    Профиль формата : Advanced Simple@L5
    Настройки формата : BVOP2
    Параметр BVOP формата : 2
    Параметр QPel формата : Нет
    Параметр GMC формата : Без точки перехода
    Параметр матрицы формата : Default (H.263)
    Идентификатор кодека : XVID
    Идентификатор кодека/Подсказка : XviD
    Продолжительность : 44 м. 43 с.
    Битрейт : 1800 Кбит/сек
    Ширина : 720 пикселей
    Высота : 400 пикселей
    Соотношение сторон : 16: 9
    Частота кадров : 25, 000 кадров/сек
    Цветовое пространство : YUV
    Субдискретизация насыщенности : 4: 2: 0
    Битовая глубина : 8 бит
    Тип развёртки : Прогрессивная
    Метод сжатия : С потерями
    Бит/(Пиксели*Кадры) : 0.250
    Размер потока : 576 Мбайт (93%)
    Библиотека кодирования : XviD 1.2.1 (UTC 2008-12-04)
    Аудио
    Идентификатор : 1
    Формат : MPEG Audio
    Версия формата : Version 1
    Профиль формата : Layer 3
    Настройки формата : Joint stereo/MS Stereo
    Идентификатор кодека : 55
    Идентификатор кодека/Подсказка : MP3
    Продолжительность : 44 м. 43 с.
    Вид битрейта : Постоянный
    Битрейт : 128 Кбит/сек
    Каналы : 2 канала
    Частота : 48, 0 КГц
    Частота кадров : 41, 667 кадра/сек (1152 SPF)
    Метод сжатия : С потерями
    Размер потока : 40, 9 Мбайт (7%)
    Выравнивание : Соединение по промежуткам
    Продолжительность промежутка : 24 мс. (0, 60 видеокадр)
    Библиотека кодирования : LAME3.99r
    Настройки программы : -m j -V 4 -q 9 -lowpass 17 -b 128


    Онлайн видео Лесник. Своя земля (2017



    Лесник. Своя земля (2017-2018) SATRip (сезон 4, серии 1-12 из 60) (обновляемая) [AD]
    Рейтинг →
     (голосов: 1, оценка 4/5, голосовать можно 1 раз )

    Другие торренты по теме:

  • Лесник. Своя земля (2017) HDTV [H.264 / 1080i-LQ] (сезон 4, серии 1-4 из 60) (обновляемая)
  • Лесник. Своя земля (2017) HDTVRip (сезон 4, серии 1-6 из 60 ) (обновляемая)
  • Лесник. Своя земля (2017) WEBRip (сезон 4, серии 1-10 из 60) (обновляемая)


    • Комментарии (0):

      Информация

      Информация

        Посетители, находящиеся в группе Гости, не могут оставлять комментарии в данной новости.

        ↓ Меню




        ↓ Опрос

        Вы добавили сайт в закладки?
        Да
        Нет


        Top 10 за месяц (Фильмы)