.
Авторизация | Регистрация
Хочешь лучшие торренты? Добавь свой email!
Добавить

Торрент скачать бесплатно

  • support: webmaster@btracker.club
» » Кандагарский бандит / The Brigand of Kandahar (1965) DVDRip [H.264] торрент скачать бесплатно


    Кандагарский бандит / The Brigand of Kandahar (1965) DVDRip [H.264] торрент скачать бесплатно

    Опубликовал: fregat | Дата: 17-07-2018, 05:00 | .torrent скачали: 1

    Кандагарский бандит / The Brigand of Kandahar (1965) DVDRip [H.264]Производство: Великобритания/Hammer Film Productions Limited
    Жанр: Приключения
    Режиссер: Джон Джиллинг
    Продюсер: Энтони Нельсон Кис

    Актеры
    Рональд Льюис, Оливер Рид, Дункан Ламонт, Ивонн Ромейн, Кэтерин Вудвиль, Глин Хьюстон, Шон Линч, Уолтер Браун, Иниго Джексон, Джереми Бёрнэм

    Описание

    Вторая половина XIX века. Войска Великобритании контролируют территорию Индии. В это время военный суд увольняет офицера по ложному обвинению в трусости. Он — наполовину англичанин, наполовину индус — решает отомстить тем, кто подставил его, и присоединяется к мятежным племенам.

    Релиз от: Охрана (NNMCLUB)
    Продолжительность: 01: 18: 14
    Качество видео: DVDRip
    Перевод: Многоголосый закадровый (Петербург 5-й канал)
    Субтитры: Английские
    Видео: AVC/H.264, 720x304, ~2125 Kbps
    Аудио 1: AC3, 2 ch, 192 Kbps - Русский
    Аудио 2: AC3, 2 ch, 192 Kbps - Английский
    Общее
    Уникальный идентификатор : 227255175508673260021841896485247459687 (0xAAF7C1377CA628EBBAF010EFC3872167)
    Полное имя : F: DownloadsКандагарский бандит. 1965. NNMCLUB.mkv
    Формат : Matroska
    Версия формата : Version 4/Version 2
    Размер файла : 1, 37 Гбайт
    Продолжительность : 1 ч. 18 м.
    Общий поток : 2511 Кбит/сек
    Дата кодирования : UTC 2018-05-27 04: 58: 54
    Программа кодирования : mkvmerge v7.9.0 ('Birds') 64bit
    Библиотека кодирования : libebml v1.3.1 + libmatroska v1.4.2
    Видео
    Идентификатор : 1
    Формат : AVC
    Формат/Информация : Advanced Video Codec
    Профиль формата : High@L4.1
    Настройки формата : CABAC/12 Ref Frames
    Параметр CABAC формата : Да
    Параметр RefFrames формата : 12 кадров
    Идентификатор кодека : V_MPEG4/ISO/AVC
    Продолжительность : 1 ч. 18 м.
    Битрейт : 2125 Кбит/сек
    Ширина : 720 пикселей
    Высота : 304 пикселя
    Соотношение сторон : 2, 35: 1
    Режим частоты кадров : Постоянный
    Частота кадров : 25, 000 кадров/сек
    Цветовое пространство : YUV
    Субдискретизация насыщенности : 4: 2: 0
    Битовая глубина : 8 бит
    Тип развёртки : Прогрессивная
    Бит/(Пиксели*Кадры) : 0.388
    Размер потока : 1, 16 Гбайт (85%)
    Заголовок : The Brigand of Kandahar
    Библиотека кодирования : x264 core 146 r2538 121396c
    Настройки программы : cabac=1/ref=12/deblock=1: -1: -1/analyse=0x3: 0x113/me=umh/subme=10/psy=1/psy_rd=1.00: 0.10/mixed_ref=1/me_range=32/chroma_me=1/trellis=2/8x8dct=1/cqm=0/deadzone=21, 11/fast_pskip=0/chroma_qp_offset=-3/threads=6/lookahead_threads=1/sliced_threads=0/nr=0/decimate=0/interlaced=0/bluray_compat=0/constrained_intra=0/bframes=7/b_pyramid=2/b_adapt=2/b_bias=0/direct=3/weightb=1/open_gop=0/weightp=2/keyint=250/keyint_min=25/scenecut=40/intra_refresh=0/rc_lookahead=60/rc=2pass/mbtree=1/bitrate=2125/ratetol=1.0/qcomp=0.60/qpmin=0/qpmax=69/qpstep=4/cplxblur=20.0/qblur=0.5/vbv_maxrate=14000/vbv_bufsize=14000/nal_hrd=none/filler=0/ip_ratio=1.40/aq=1: 1.00
    Язык : English
    Default : Да
    Forced : Нет
    Аудио #1
    Идентификатор : 2
    Формат : AC-3
    Формат/Информация : Audio Coding 3
    Идентификатор кодека : A_AC3
    Продолжительность : 1 ч. 18 м.
    Вид битрейта : Постоянный
    Битрейт : 192 Кбит/сек
    Каналы : 2 канала
    Расположение каналов : Front: L R
    Частота : 48, 0 КГц
    Частота кадров : 31, 250 кадров/сек (1536 SPF)
    Битовая глубина : 16 бит
    Метод сжатия : С потерями
    Задержка видео : 26 мс.
    Размер потока : 107 Мбайт (8%)
    Заголовок : Многоголосый закадровый
    Язык : Russian
    ServiceKind/String : Complete Main
    Default : Да
    Forced : Нет
    Аудио #2
    Идентификатор : 3
    Формат : AC-3
    Формат/Информация : Audio Coding 3
    Идентификатор кодека : A_AC3
    Продолжительность : 1 ч. 18 м.
    Вид битрейта : Постоянный
    Битрейт : 192 Кбит/сек
    Каналы : 2 канала
    Расположение каналов : Front: L R
    Частота : 48, 0 КГц
    Частота кадров : 31, 250 кадров/сек (1536 SPF)
    Битовая глубина : 16 бит
    Метод сжатия : С потерями
    Размер потока : 107 Мбайт (8%)
    Заголовок : Оригинал
    Язык : English
    ServiceKind/String : Complete Main
    Default : Нет
    Forced : Нет
    Текст
    Идентификатор : 4
    Формат : UTF-8
    Идентификатор кодека : S_TEXT/UTF8
    Идентификатор кодека/Информация : UTF-8 Plain Text
    Продолжительность : 1 ч. 15 м.
    Битрейт : 50 бит/сек
    ElementCount : 784
    Размер потока : 28, 0 Кбайт (0%)
    Заголовок : SRT
    Язык : English
    Default : Нет
    Forced : Нет

    Скриншоты для ознакомления




    Все одноименные релизы в Клубе
    Время раздачи: с 13: 00 до 01: 00 МСК, выходные круглосуточно (до появления первых 3-5 скачавших)


    Онлайн видео Кандагарский бандит



    Кандагарский бандит/The Brigand of Kandahar (1965) DVDRip [H.264]
    Рейтинг →
     (голосов: 1, оценка 3/5, голосовать можно 1 раз )

    Другие торренты по теме:



      Комментарии (0):

      Информация

      Информация

        Посетители, находящиеся в группе Гости, не могут оставлять комментарии в данной новости.

        ↓ Меню




        ↓ Опрос

        Вы добавили сайт в закладки?
        Да
        Нет


        Top 10 за месяц (Фильмы)