.
Авторизация | Регистрация
Хочешь лучшие торренты? Добавь свой email!
Добавить

Торрент скачать бесплатно

  • support: webmaster@btracker.club
» » Траффик / Traffik (2018) BDRemux [H.264 / 1080p] [EN / EN, Sp Sub] торрент скачать бесплатно


    Траффик / Traffik (2018) BDRemux [H.264 / 1080p] [EN / EN, Sp Sub] торрент скачать бесплатно

    Опубликовал: fregat | Дата: 17-07-2018, 05:00 | .torrent скачали: 0

    Траффик / Traffik (2018) BDRemux [H.264 / 1080p] [EN / EN, Sp Sub]Производство: США/Hidden Empire Film Group
    Жанр: триллер
    Режиссер: Деон Тейлор

    Актеры
    Омар Эппс, Пола Пэттон, Мисси Пайл, Уильям Фихтнер, Доун Оливери, Роселин Санчес, Люк Госс, Лас Алонсо, Стэйси Арвен Рааб, Клод Дюамель, Лорин МакКрэйли

    Описание

    Молодая пара Бреа и Джон отправляются в романтическое путешествие в горы. Вдали от цивилизации они подвергаются нападению банды торговцев людьми и вступают с ними в смертельное противостояние.

    Рейтинг MPAA: R (лицам до 17 лет обязательно присутствие взрослого)
    Продолжительность: 01: 36: 51
    Качество видео: BDRemux
    Перевод: Отсутствует
    Язык озвучки: Английский
    Субтитры: английские, испанские
    Видео: AVC/H.264, 1920x1080 (16: 9), 27746 kbps, 23.976 fps, 0.558 bpp
    Аудио: DTS-HD MA, 6 ch, 3491 kbps (Core: 6 ch, 1509 kbps) - английский
    General
    Unique ID : 218675259131776189113693996303720972415 (0xA48352ADE3DEAFD68ECB84CFD5FD007F)
    Complete name : Traffik.2018.REMUX.1080p.BluRay.AVC.DTS-HD.MA.5.1-iFTTraffik.2018.REMUX.1080p.BluRay.AVC.DTS-HD.MA.5.1-iFT.mkv
    Format : Matroska
    Format version : Version 4/Version 2
    File size : 21.1 GiB
    Duration : 1 h 36 min
    Overall bit rate mode : Variable
    Overall bit rate : 31.3 Mb/s
    Movie name : Traffik.2018.REMUX.1080p.BluRay.AVC.DTS-HD.MA.5.1-iFT
    Encoded date : UTC 2018-07-16 16: 38: 40
    Writing application : mkvmerge v9.9.0 ('Pick Up') 64bit
    Writing library : libebml v1.3.4 + libmatroska v1.4.5
    Video
    ID : 1
    Format : AVC
    Format/Info : Advanced Video Codec
    Format profile : High@L4.1
    Format settings, CABAC : Yes
    Format settings, ReFrames : 4 frames
    Codec ID : V_MPEG4/ISO/AVC
    Duration : 1 h 36 min
    Bit rate mode : Variable
    Bit rate : 27.7 Mb/s
    Maximum bit rate : 35.0 Mb/s
    Width : 1 920 pixels
    Height : 1 080 pixels
    Display aspect ratio : 16: 9
    Frame rate mode : Constant
    Frame rate : 23.976 (24000/1001) FPS
    Color space : YUV
    Chroma subsampling : 4: 2: 0
    Bit depth : 8 bits
    Scan type : Progressive
    Bits/(Pixel*Frame) : 0.558
    Stream size : 18.8 GiB (89%)
    Default : Yes
    Forced : No
    Audio
    ID : 2
    Format : DTS
    Format/Info : Digital Theater Systems
    Format profile : MA/Core
    Mode : 16
    Format settings, Endianness : Big
    Codec ID : A_DTS
    Duration : 1 h 36 min
    Bit rate mode : Variable/Constant
    Bit rate : 3 492 kb/s/1 509 kb/s
    Channel(s) : 6 channels
    Channel positions : Front: L C R, Side: L R, LFE
    Sampling rate : 48.0 kHz
    Frame rate : 93.750 FPS (512 spf)
    Bit depth : 24 bits
    Compression mode : Lossless/Lossy
    Stream size : 2.36 GiB (11%)
    Language : English
    Default : Yes
    Forced : No
    Text #1
    ID : 3
    Format : PGS
    Muxing mode : zlib
    Codec ID : S_HDMV/PGS
    Codec ID/Info : Picture based subtitle format used on BDs/HD-DVDs
    Duration : 1 h 30 min
    Bit rate : 6 874 b/s
    Count of elements : 2906
    Stream size : 4.44 MiB (0%)
    Title : SDH
    Language : English
    Default : Yes
    Forced : No
    Text #2
    ID : 4
    Format : PGS
    Muxing mode : zlib
    Codec ID : S_HDMV/PGS
    Codec ID/Info : Picture based subtitle format used on BDs/HD-DVDs
    Duration : 1 h 30 min
    Bit rate : 5 569 b/s
    Count of elements : 2478
    Stream size : 3.60 MiB (0%)
    Language : English
    Default : No
    Forced : No
    Text #3
    ID : 5
    Format : PGS
    Muxing mode : zlib
    Codec ID : S_HDMV/PGS
    Codec ID/Info : Picture based subtitle format used on BDs/HD-DVDs
    Duration : 1 h 30 min
    Bit rate : 5 013 b/s
    Count of elements : 2354
    Stream size : 3.26 MiB (0%)
    Language : Spanish
    Default : No
    Forced : No


    Скриншоты для ознакомления



    Все одноименные релизы в Клубе
    Время раздачи: с 13: 00 до 23: 00


    Онлайн видео Траффик



    Траффик/Traffik (2018) BDRemux [H.264/1080p] [EN/EN, Sp Sub]
    Рейтинг →
     (голосов: 1, оценка 4/5, голосовать можно 1 раз )

    Другие торренты по теме:

  • Траффик / Traffik (2018) DVDRip [MVO] [AD]
  • Траффик / Traffik (2018) BDRemux [H.264 / 1080p]
  • Траффик / Traffik (2018) BDRip [MVO]
  • Траффик / Traffik (2018) BDRip [H.264 / 1080p] [MVO]


    • Комментарии (0):

      Информация

      Информация

        Посетители, находящиеся в группе Гости, не могут оставлять комментарии в данной новости.

        ↓ Меню




        ↓ Опрос

        Вы добавили сайт в закладки?
        Да
        Нет


        Top 10 за месяц (Фильмы)