.
Авторизация | Регистрация
Хочешь лучшие торренты? Добавь свой email!
Добавить

Торрент скачать бесплатно

  • support: webmaster@btracker.club
» » Суперполицейские 2 / Super Troopers 2 (2018) BDRip [H.264 / 1080p] [MVO] торрент скачать бесплатно


    Суперполицейские 2 / Super Troopers 2 (2018) BDRip [H.264 / 1080p] [MVO] торрент скачать бесплатно

    Опубликовал: fregat | Дата: 17-07-2018, 05:00 | .torrent скачали: 0

    Суперполицейские 2 / Super Troopers 2 (2018) BDRip [H.264 / 1080p] [MVO]Производство: США/Votiv Films, Broken Lizard Industries, Cataland Films
    Жанр: Комедия, криминал, детектив
    Режиссер: Джей Чандрашекхар

    Актеры
    Шонн Уильям Скотт, Клифтон Коллинз мл., Стив Лемми, Эрик Столханске, Джей Чандрашекхар, Пол Сотер, Дэймон Уайанс мл., Кевин Хеффернан, Брайан Кокс, Мариса Кохлан

    Описание

    Фильм расскажет о безалаберных дорожных патрульных из маленького городка на границе США и Канады. Чтобы навести порядок на пограничной дороге и разрешить международный конфликт, пятёрка суперполицейских вынуждена сотрудничать со своими невыносимыми канадскими коллегами.

    Рейтинг MPAA: R (лицам до 17 лет обязательно присутствие взрослого)
    Дата мировой премьеры: 19 апреля 2018
    Цифровой релиз: 3 августа 2018
    Продолжительность: 01: 39: 30
    Качество видео: BDRip (1080p)
    Перевод: Многоголосый закадровый, профессиональный (HDRezka Studio)
    Субтитры: Английские (Full, SDH)
    Видео: H.264/AVC, 1920x1040, ~14.6 Mbps
    Аудио #1: AC-3, 2 ch, 384 Kbps | Русский
    Аудио #2: AC-3, 6 ch, 640 Kbps | Английский

    Общее
    Уникальный идентификатор : 238814967711744001763167410264971882629 (0xB3AA16F9C027EDE58CC0C04185133085)
    Полное имя : E: NNMСуперполицейскиеSuper Troopers 2 2018 BDRip 1080p.mkv
    Формат : Matroska
    Версия формата : Version 4/Version 2
    Размер файла : 11, 1 Гбайт
    Продолжительность : 1 ч. 39 м.
    Общий поток : 16, 0 Мбит/сек
    Дата кодирования : UTC 2018-07-15 04: 39: 27
    Программа кодирования : mkvmerge v6.9.1 ('Blue Panther') 32bit built on Apr 18 2014 18: 15: 44
    Библиотека кодирования : libebml v1.3.0 + libmatroska v1.4.1
    Видео
    Идентификатор : 1
    Формат : AVC
    Формат/Информация : Advanced Video Codec
    Профиль формата : High@L4.1
    Настройки формата : CABAC/4 Ref Frames
    Параметр CABAC формата : Да
    Параметр RefFrames формата : 4 кадра
    Идентификатор кодека : V_MPEG4/ISO/AVC
    Продолжительность : 1 ч. 39 м.
    Битрейт : 14, 6 Мбит/сек
    Ширина : 1920 пикселей
    Высота : 1040 пикселей
    Соотношение сторон : 1, 85: 1
    Режим частоты кадров : Постоянный
    Частота кадров : 23, 976 (24000/1001) кадра/сек
    Цветовое пространство : YUV
    Субдискретизация насыщенности : 4: 2: 0
    Битовая глубина : 8 бит
    Тип развёртки : Прогрессивная
    Бит/(Пиксели*Кадры) : 0.306
    Размер потока : 10, 2 Гбайт (92%)
    Библиотека кодирования : x264 core 142 r2431+42 c69a006 tMod 8-bit@4: 2: 0 X86_64
    Настройки программы : cabac=1/ref=4/deblock=1: -3: -3/analyse=0x3: 0x113/me=umh/subme=10/psy=1/fade_compensate=0.00/psy_rd=1.00: 0.05/mixed_ref=1/me_range=48/chroma_me=1/trellis=2/8x8dct=1/cqm=0/deadzone=21, 11/fast_pskip=0/chroma_qp_offset=-2/threads=48/lookahead_threads=8/sliced_threads=0/nr=0/decimate=1/interlaced=0/bluray_compat=0/constrained_intra=0/fgo=0/bframes=8/b_pyramid=2/b_adapt=2/b_bias=0/direct=3/weightb=1/open_gop=0/weightp=2/keyint=250/keyint_min=23/scenecut=40/intra_refresh=0/rc_lookahead=40/rc=crf/mbtree=0/crf=18.6000/qcomp=0.60/qpmin=0: 0: 0/qpmax=69: 69: 69/qpstep=4/vbv_maxrate=40000/vbv_bufsize=30000/crf_max=0.0/nal_hrd=none/filler=0/ip_ratio=1.40/pb_ratio=1.30/aq=3: 0.80/aq-sensitivity=10.00/aq-factor=1.00: 1.00: 1.00/aq2=0/aq3=0
    Язык : English
    Default : Нет
    Forced : Нет
    Аудио #1
    Идентификатор : 2
    Формат : AC-3
    Формат/Информация : Audio Coding 3
    Идентификатор кодека : A_AC3
    Продолжительность : 1 ч. 39 м.
    Вид битрейта : Постоянный
    Битрейт : 384 Кбит/сек
    Каналы : 2 канала
    Расположение каналов : Front: L R
    Частота : 48, 0 КГц
    Частота кадров : 31, 250 кадров/сек (1536 SPF)
    Битовая глубина : 16 бит
    Метод сжатия : С потерями
    Размер потока : 273 Мбайт (2%)
    Язык : Russian
    ServiceKind/String : Complete Main
    Default : Да
    Forced : Нет
    Аудио #2
    Идентификатор : 3
    Формат : AC-3
    Формат/Информация : Audio Coding 3
    Идентификатор кодека : A_AC3
    Продолжительность : 1 ч. 39 м.
    Вид битрейта : Постоянный
    Битрейт : 640 Кбит/сек
    Каналы : 6 каналов
    Расположение каналов : Front: L C R, Side: L R, LFE
    Частота : 48, 0 КГц
    Частота кадров : 31, 250 кадров/сек (1536 SPF)
    Битовая глубина : 16 бит
    Метод сжатия : С потерями
    Размер потока : 456 Мбайт (4%)
    Язык : English
    ServiceKind/String : Complete Main
    Default : Нет
    Forced : Нет
    Текст #1
    Идентификатор : 4
    Формат : UTF-8
    Идентификатор кодека : S_TEXT/UTF8
    Идентификатор кодека/Информация : UTF-8 Plain Text
    Заголовок : Full
    Язык : English
    Default : Нет
    Forced : Нет
    Текст #2
    Идентификатор : 5
    Формат : UTF-8
    Идентификатор кодека : S_TEXT/UTF8
    Идентификатор кодека/Информация : UTF-8 Plain Text
    Заголовок : SDH
    Язык : English
    Default : Нет
    Forced : Нет
    Меню
    00: 00: 00.000 : en: 00: 00: 00.000
    00: 05: 15.398 : en: 00: 05: 15.398
    00: 09: 08.757 : en: 00: 09: 08.757
    00: 12: 43.012 : en: 00: 12: 43.012
    00: 16: 12.972 : en: 00: 16: 12.972
    00: 22: 11.956 : en: 00: 22: 11.956
    00: 26: 35.552 : en: 00: 26: 35.552
    00: 29: 48.620 : en: 00: 29: 48.620
    00: 33: 19.956 : en: 00: 33: 19.956
    00: 36: 33.608 : en: 00: 36: 33.608
    00: 40: 04.527 : en: 00: 40: 04.527
    00: 43: 10.880 : en: 00: 43: 10.880
    00: 46: 35.209 : en: 00: 46: 35.209
    00: 51: 43.142 : en: 00: 51: 43.142
    00: 55: 46.802 : en: 00: 55: 46.802
    01: 01: 09.207 : en: 01: 01: 09.207
    01: 04: 57.018 : en: 01: 04: 57.018
    01: 07: 07.065 : en: 01: 07: 07.065
    01: 11: 33.247 : en: 01: 11: 33.247
    01: 14: 53.531 : en: 01: 14: 53.531
    01: 17: 32.523 : en: 01: 17: 32.523
    01: 22: 55.137 : en: 01: 22: 55.137
    01: 26: 08.622 : en: 01: 26: 08.622
    01: 28: 43.902 : en: 01: 28: 43.902

    Скриншоты для ознакомления



    Все одноименные релизы в Клубе Время раздачи: 24/7 (до появления первых 3-5 скачавших)


    Онлайн видео Суперполицейские 2



    Суперполицейские 2/Super Troopers 2 (2018) BDRip [H.264/1080p] [MVO]
    Рейтинг →
     (голосов: 1, оценка 4/5, голосовать можно 1 раз )

    Другие торренты по теме:

  • Суперполицейские 2 / Super Troopers 2 (2018) WEB-DLRip [MVO] [AD]
  • Суперполицейские 2 / Super Troopers 2 (2018) BDRemux [H.264 / 1080p] [EN / EN, Fr, Sp Sub]
  • Суперполицейские 2 / Super Troopers 2 (2018) BDRip [MVO]
  • Суперполицейские 2 / Super Troopers 2 (2018) BDRip [H.264] [MVO]
  • Суперполицейские 2 / Super Troopers 2 (2018) BDRip
  • Суперполицейские 2 / Super Troopers 2 (2018) BDRip [H.264 / 720p]


    • Комментарии (0):

      Информация

      Информация

        Посетители, находящиеся в группе Гости, не могут оставлять комментарии в данной новости.

        ↓ Меню




        ↓ Опрос

        Вы добавили сайт в закладки?
        Да
        Нет


        Top 10 за месяц (Фильмы)