.
Авторизация | Регистрация

Торрент скачать бесплатно

  • support: webmaster@btracker.club
» » 8 подруг Оушена / Oceans Eight (2018) TS [H.264 / 720p-LQ] [MVO] [AD] торрент скачать бесплатно


    8 подруг Оушена / Oceans Eight (2018) TS [H.264 / 720p-LQ] [MVO] [AD] торрент скачать бесплатно

    Дата: 14-06-2018, 05:00 | .torrent скачали: 17

    8 подруг Оушена / Oceans Eight (2018) TS [H.264 / 720p-LQ] [MVO] [AD]Производство: США/Rahway Road Productions, Smoke House
    Жанр: Боевик, триллер, комедия, криминал
    Режиссер: Гэри Росс

    Актеры
    Сандра Баллок, Кейт Бланшет, Гриффин Данн, Дирдри Гудвин, Энн Хэтэуэй, Минди Кейлинг, Даниэлла Раббани, Брайан Дж. Картер, Сара Полсон, Аквафина

    Описание

    Пять лет, восемь месяцев, 12 дней… и далее. Именно столько Дебби Оушен разрабатывала план величайшего ограбления своей жизни.
    Она точно знает, что для него потребуется, — команда лучших в своем деле, начиная с ее давней сообщницы Лу Миллер. Вместе они собирают команду уникальных специалистов. Их цель — неотразимые 150 миллионов долларов в бриллиантах — в бриллиантах на шее всемирно известной актрисы Дафны Клюгер, к которой будет приковано всеобщее внимание на главном событии года — бале в Метрополитен-музее.
    Сам план бесподобен, но и реализация должна быть безупречна, если они хотят войти и выйти с драгоценностями в руках. Прямо у всех на виду.

    Возраст: 16+ (зрителям, достигшим 16 лет)
    Рейтинг MPAA: PG-13 (детям до 13 лет просмотр нежелателен)
    Дата мировой премьеры: 5 июня 2018
    Дата премьеры в России: 21 июня 2018

    Продолжительность: 01: 43: 02
    Качество видео: TS
    Перевод: Многоголосый закадровый, любительский (КОЛОБОК)
    Субтитры: Отсутствуют
    Реклама: Присутствуют вставки текстовой рекламы
    Видео: AVC/H.264, 1280x536, ~3704 Kbps
    Аудио: AC-3, 2 ch, 384 Kbps

    Общее
    Полное имя : E: NNM8 подруг ОушенаOceans 8 2018 TS 720p-LQ.mkv
    Формат : Matroska
    Версия формата : Version 2
    Размер файла : 3, 00 Гбайт
    Продолжительность : 1 ч. 43 м.
    Режим общего битрейта : Переменный
    Общий поток : 4171 Кбит/сек
    Программа кодирования : libmatroska 1.4.1
    Видео
    Идентификатор : 1
    Формат : AVC
    Формат/Информация : Advanced Video Codec
    Профиль формата : High@L4.1
    Настройки формата : CABAC/4 Ref Frames
    Параметр CABAC формата : Да
    Параметр RefFrames формата : 4 кадра
    Идентификатор кодека : V_MPEG4/ISO/AVC
    Продолжительность : 1 ч. 43 м.
    Вид битрейта : Переменный
    Битрейт : 3704 Кбит/сек
    Максимальный битрейт : 4000 Кбит/сек
    Ширина : 1280 пикселей
    Высота : 536 пикселей
    Соотношение сторон : 2, 40: 1
    Режим частоты кадров : Постоянный
    Частота кадров : 23, 976 (24000/1001) кадра/сек
    Стандарт вещания : Component
    Цветовое пространство : YUV
    Субдискретизация насыщенности : 4: 2: 0
    Битовая глубина : 8 бит
    Тип развёртки : Прогрессивная
    Бит/(Пиксели*Кадры) : 0.225
    Размер потока : 2, 67 Гбайт (89%)
    Default : Нет
    Forced : Нет
    Цветовой диапазон : Limited
    Основные цвета : BT.709
    Характеристики трансфера : BT.709
    Коэффициенты матрицы : BT.709
    Аудио
    Идентификатор : 2
    Формат : AC-3
    Формат/Информация : Audio Coding 3
    Идентификатор кодека : A_AC3
    Продолжительность : 1 ч. 43 м.
    Вид битрейта : Постоянный
    Битрейт : 384 Кбит/сек
    Каналы : 2 канала
    Расположение каналов : Front: L R
    Частота : 48, 0 КГц
    Частота кадров : 31, 250 кадров/сек (1536 SPF)
    Битовая глубина : 16 бит
    Метод сжатия : С потерями
    Размер потока : 283 Мбайт (9%)
    ServiceKind/String : Complete Main
    Default : Нет
    Forced : Нет

    Скриншоты для ознакомления



    Все одноименные релизы в Клубе Время раздачи: 24/7 (до появления первых 3-5 скачавших)


    Онлайн видео 8 подруг Оушена



    8 подруг Оушена/Oceans Eight (2018) TS [H.264/720p-LQ] [MVO] [AD]
    Рейтинг →
     (голосов: 1, оценка 3/5, голосовать можно 1 раз )

    Другие торренты по теме:

  • 8 подруг Оушена / Oceans Eight (2018) WEB-DL [H.264 / 1080p-LQ]
  • 8 подруг Оушена / Oceans Eight (2018) WEB-DLRip
  • 8 подруг Оушена / Oceans Eight (2018) WEB-DL [H.264 / 1080p-LQ] [EN / EN Sub]
  • 8 подруг Оушена / Oceans Eight (2018) WEB-DLRip [H.264]
  • 8 подруг Оушена / Oceans Eight (2018) WEB-DL [720p] ATV
  • 8 подруг Оушена / Oceans Eight (2018) WEB-DL [1080p] ATV
  • 8 подруг Оушена / Oceans Eight (2018) WEB-DLRip [480p] iPod
  • 8 подруг Оушена / Oceans Eight (2018) WEB-DLRip [576p] iPad


    • Комментарии (0):

      Информация

      Информация

        Посетители, находящиеся в группе Гости, не могут оставлять комментарии в данной новости.

        ↓ Меню




        ↓ Опрос

        Вы добавили сайт в закладки?
        Да
        Нет


        Top 10 за месяц (Фильмы)