.
Авторизация | Регистрация
Хочешь лучшие торренты? Добавь свой email!
Добавить

Торрент скачать бесплатно

  • support: webmaster@btracker.club
» » Друва / Dhruva (2016) WEBRip [MVO] торрент скачать бесплатно


    Друва / Dhruva (2016) WEBRip [MVO] торрент скачать бесплатно

    Опубликовал: fregat | Дата: 4-06-2018, 05:00 | .torrent скачали: 166

    Друва / Dhruva (2016) WEBRip [MVO]Производство: Индия
    Жанр: Боевик, Триллер
    Режиссер: Сурендра Редди
    Продюсер: Аллу Аравинд, V.Y. Praveenkumar

    Актеры
    Рам Чаран Теджа, Абхиная, Арвинд Свами, Видьюллекха Раман, Кришна Мурали Посани, Мадхусудхан Рао, Навдип, Нассер, Ракул Прит Сингх, Саяджи Шинде, Эджей Ратнам

    Описание

    Главный герой картины Венканна, в возрасте пятнадцати лет занимает первое место на государственном экзамене. После чего, вместе с отцом он посещает лидера правящей партии с целью получить его благословение. Ожидая в приемной, они становятся свидетелями убийства кандидата в министры. Убийство, которое совершает их уважаемый лидер. Поняв что натворил, и опасаясь гнева со стороны коалиции. Лидер просит Ченгалайду, отца парня, взять вину и отправить в тюрьму своего сына... Объяснил убийство чинуша просто... Мол совершил преступление в порыве гнева. И сославшись на снисходительность законов для несовершеннолетних, пообещал место ГНД для Ченгалайду на предстоящих выборах. Сделка согласовывается и выполняется

    Мировая премьера : 8 декабря 2016
    Продолжительность: 02: 41: 06
    Качество видео: WEBRip
    Перевод: Любительский (двухголосый)
    Озвучка: Марик и Софи Россо
    Субтитры: отсутствуют
    Видео: Xvid, 720x300, ~1397 Kbps
    Аудио: AAC, 2 ch, 208 Kbps

    Общее
    Полное имя : E: Индияа.арджун, р.м.теджаDhruva.2016.WEBrip.Xvid.avi
    Формат : AVI
    Формат/Информация : Audio Video Interleave
    Профиль формата : OpenDML
    Размер файла : 1, 82 Гбайт
    Продолжительность : 2 ч. 41 м.
    Режим общего битрейта : Переменный
    Общий поток : 1619 Кбит/сек
    Программа кодирования : Lavf57.71.100
    Видео
    Идентификатор : 0
    Формат : MPEG-4 Visual
    Профиль формата : Advanced Simple@L5
    Параметр BVOP формата : 1
    Параметр QPel формата : Нет
    Параметр GMC формата : Без точки перехода
    Параметр матрицы формата : Default (H.263)
    Идентификатор кодека : XVID
    Идентификатор кодека/Подсказка : XviD
    Продолжительность : 2 ч. 41 м.
    Битрейт : 1397 Кбит/сек
    Ширина : 720 пикселей
    Высота : 300 пикселей
    Соотношение сторон : 2, 40: 1
    Частота кадров : 25, 000 кадров/сек
    Цветовое пространство : YUV
    Субдискретизация насыщенности : 4: 2: 0
    Битовая глубина : 8 бит
    Тип развёртки : Прогрессивная
    Метод сжатия : С потерями
    Бит/(Пиксели*Кадры) : 0.259
    Размер потока : 1, 57 Гбайт (86%)
    Библиотека кодирования : XviD 67
    Аудио
    Идентификатор : 1
    Формат : AAC
    Формат/Информация : Advanced Audio Codec
    Версия формата : Version 4
    Профиль формата : LC
    Режим смешивания : ADTS
    Идентификатор кодека : FF
    Продолжительность : 2 ч. 41 м.
    Вид битрейта : Переменный
    Битрейт : 208 Кбит/сек
    Каналы : 2 канала
    Расположение каналов : Front: L R
    Частота : 44, 1 КГц
    Частота кадров : 43, 066 кадра/сек (1024 spf)
    Метод сжатия : С потерями
    Размер потока : 240 Мбайт (13%)
    Выравнивание : Соединение по промежуткам
    Продолжительность промежутка : 23 мс. (0, 58 видеокадр)

    Скриншоты для ознакомления



    Все одноименные релизы в Клубе
    Время раздачи: Пн-Пт с 18: 00 до 22: 00, Вс с 09: 00 до 23: 00 (до появления первых 3-5 скачавших)


    Онлайн видео Друва



    Друва/Dhruva (2016) WEBRip [MVO]
    Рейтинг →
     (голосов: 1, оценка 4/5, голосовать можно 1 раз )

    Другие торренты по теме:



      Комментарии (0):

      Информация

      Информация

        Посетители, находящиеся в группе Гости, не могут оставлять комментарии в данной новости.

        ↓ Меню




        ↓ Опрос

        Вы добавили сайт в закладки?
        Да
        Нет


        Top 10 за месяц (Фильмы)