.
Авторизация | Регистрация
Хочешь лучшие торренты? Добавь свой email!
Добавить

Торрент скачать бесплатно

  • support: webmaster@btracker.club
» » Чёрный снег (2007-2009) DVDRip (сезон 1-2, серии 1-8 из 8) торрент скачать бесплатно


    Чёрный снег (2007-2009) DVDRip (сезон 1-2, серии 1-8 из 8) торрент скачать бесплатно

    Опубликовал: Админ | Дата: 13-02-2018, 05:00 | .torrent скачали: 35

    Чёрный снег (2007-2009) DVDRip (сезон 1-2, серии 1-8 из 8)Производство: Россия/Феникс-Фильм
    Жанр: боевик, приключения
    Режиссер: Алексей Козлов

    Актеры
    Алексей Зубков, Михаил Разумовский, Татьяна Черкасова, Владимир Капустин, Екатерина Новикова, Любовь Поволоцкая, Николай Иванов, Николай Добрынин, Наталья Муравьевская, Сергей Селин и др.

    Описание

    Чувствам и страстям высокого накала тесно в городских интерьерах. В вольном таежном краю, любят и ненавидят без оглядки, позабыв про всё. Сюда, в Сибирь, на поиски Марии — племянницы друга — прибывает бывший офицер Сергей Гущин. Гущин не подозревает, что это путешествие перевернет всю его жизнь.....

    Возраст: 16+ (зрителям, достигшим 16 лет)
    Продолжительность: ~00: 47: 00 серия
    Качество видео: DVDRip
    Видео: XviD, 672x384, 704х384, ~1600-1800 Kbps
    Аудио: MP3-АС3, 48.0 KHz, 2 ch, 192 Kbps, CBR

    Общее
    Полное имя : E: NNMЧерный снегChernyj.sneg.(1-2.sezoni.1-8.serii.iz.8).2007-2009.XviD.DVDRipChernyj.sneg.(2.sezon.1-4.serii.iz.4).2009.XviD.DVDRipChernyj.sneg.(2.sezon.1.serija.iz.4).2009.XviD.DVDRip.avi
    Формат : AVI
    Формат/Информация : Audio Video Interleave
    Размер файла : 525 Мбайт
    Продолжительность : 46 м. 6 с.
    Общий поток : 1592 Кбит/сек
    Программа кодирования : VirtualDubMod 1.5.4.1 (build 2178/release)
    Библиотека кодирования : VirtualDubMod build 2178/release
    Видео
    Идентификатор : 0
    Формат : MPEG-4 Visual
    Профиль формата : Advanced Simple@L5
    Настройки формата : BVOP1/Custom Matrix
    Параметр BVOP формата : 1
    Параметр QPel формата : Нет
    Параметр GMC формата : Без точки перехода
    Параметр матрицы формата : Выборочная
    Идентификатор кодека : XVID
    Идентификатор кодека/Подсказка : XviD
    Продолжительность : 46 м. 6 с.
    Битрейт : 1394 Кбит/сек
    Ширина : 704 пикселя
    Высота : 384 пикселя
    Соотношение сторон : 1, 85: 1
    Частота кадров : 25, 000 кадров/сек
    Цветовое пространство : YUV
    Субдискретизация насыщенности : 4: 2: 0
    Битовая глубина : 8 бит
    Тип развёртки : Прогрессивная
    Метод сжатия : С потерями
    Бит/(Пиксели*Кадры) : 0.206
    Размер потока : 460 Мбайт (88%)
    Библиотека кодирования : XviD 1.3.0.dev55
    Аудио
    Идентификатор : 1
    Формат : AC-3
    Формат/Информация : Audio Coding 3
    Идентификатор кодека : 2000
    Продолжительность : 46 м. 6 с.
    Вид битрейта : Постоянный
    Битрейт : 192 Кбит/сек
    Каналы : 2 канала
    Расположение каналов : Front: L R
    Частота : 48, 0 КГц
    Частота кадров : 31, 250 кадров/сек (1536 SPF)
    Битовая глубина : 16 бит
    Метод сжатия : С потерями
    Размер потока : 63, 3 Мбайт (12%)
    Выравнивание : Разделение по промежуткам
    Продолжительность промежутка : 96 мс. (2, 40 видеокадра)
    Время предзагрузки промежутка : 96 мс.
    Язык : Russian
    ServiceKind/String : Complete Main

    Скриншоты для ознакомления



    Все одноименные релизы в Клубе
    Время раздачи: 24/7 (до появления первых 3-5 скачавших)


    Онлайн видео Чёрный снег (2007



    Чёрный снег (2007-2009) DVDRip (сезон 1-2, серии 1-8 из 8)
    Рейтинг →
     (голосов: 1, оценка 5/5, голосовать можно 1 раз )

    Другие торренты по теме:

  • Чёрный снег / Nieve negra (2017) WEBRip [VO]


    • Комментарии (0):

      Информация

      Информация

        Посетители, находящиеся в группе Гости, не могут оставлять комментарии в данной новости.

        ↓ Меню




        ↓ Опрос

        Вы добавили сайт в закладки?
        Да
        Нет


        Top 10 за месяц (Фильмы)