.
Авторизация | Регистрация
Хочешь лучшие торренты? Добавь свой email!
Добавить

Торрент скачать бесплатно

  • support: webmaster@btracker.club
» » Терминатор 2: Судный день / Terminator 2: Judgment Day (1991) BDRip [Directors Cut / Special Edition] [Remastered 2017] торрент скачать бесплатно


    Терминатор 2: Судный день / Terminator 2: Judgment Day (1991) BDRip [Directors Cut / Special Edition] [Remastered 2017] торрент скачать бесплатно

    Опубликовал: fregat | Дата: 15-12-2017, 05:00 | .torrent скачали: 8

    Терминатор 2: Судный день / Terminator 2: Judgment Day (1991) BDRip [Directors Cut / Special Edition] [Remastered 2017]Производство: США, Франция, Canal+, Carolco Pictures Inc. Lightstorm Entertainment, Pacific Western, T2 Productions
    Жанр: Фантастика, Боевик, Триллер
    Режиссер: Джеймс Кэмерон

    Актеры
    Арнольд Шварценеггер, Линда Хэмилтон, Эдвард Ферлонг, Роберт Патрик, Эрл Боэн, Джо Мортон, С. Ипейта Меркерсон, Кастуло Герра, Дэнни Кукси, Дженетт Голдстин, Ксандер Беркли

    Описание

    Война роботов и людей продолжается. Казалось, что человечество обречено на полное уничтожение. Но благодаря своему лидеру Джону Коннору у сопротивления появляется шанс победить. Не имея возможности убить Джона в реальном времени, роботы отправляют в прошлое свою самую совершенную разработку — терминатора-убийцу из жидкого металла, способного принимать любое обличье. Теперь, чтобы победить в будущем, юному Джону Коннору надо выжить в настоящем. Его шансы существенно повышаются, когда на помощь приходит перепрограммированный сопротивлением терминатор предыдущего поколения. Оба робота вступают в смертельный бой, от исхода которого зависит судьба человечества.

    Возраст: 18+ (зрителям, достигшим 18 лет. запрещено для детей)
    Рейтинг MPAA: R (лицам до 17 лет обязательно присутствие взрослого)
    Релиз от: Mastersnof ®
    Продолжительность: 02: 33: 12
    Качество видео: BDRip
    Перевод: Многоголосый закадровый
    Субтитры: отсутствуют
    Видео: Xvid, 1024x428, ~1847 kb/s
    Аудио: MP3, 2 ch, 256 kb/s (Киномания)

    General
    Complete name : Терминатор 2 Судный день-1991 Special Edition Digital Remastered.avi
    Format : AVI
    Format/Info : Audio Video Interleave
    Format profile : OpenDML
    File size : 2.26 GiB
    Duration : 2 h 33 min
    Overall bit rate : 2 115 kb/s
    Writing application : Lavf57.71.100
    Video
    ID : 0
    Format : MPEG-4 Visual
    Format profile : Advanced Simple@L5
    Format settings : BVOP3
    Format settings, BVOP : 3
    Format settings, QPel : No
    Format settings, GMC : No warppoints
    Format settings, Matrix : Default (MPEG)
    Codec ID : XVID
    Codec ID/Hint : XviD
    Duration : 2 h 33 min
    Bit rate : 1 847 kb/s
    Width : 1 024 pixels
    Height : 428 pixels
    Display aspect ratio : 2.40: 1
    Frame rate : 23.976 (24000/1001) FPS
    Color space : YUV
    Chroma subsampling : 4: 2: 0
    Bit depth : 8 bits
    Scan type : Progressive
    Compression mode : Lossy
    Bits/(Pixel*Frame) : 0.176
    Stream size : 1.98 GiB (87%)
    Writing library : XviD 67
    Audio
    ID : 1
    Format : MPEG Audio
    Format version : Version 1
    Format profile : Layer 3
    Format settings : Joint stereo
    Mode : Joint stereo
    Codec ID : 55
    Codec ID/Hint : MP3
    Duration : 2 h 33 min
    Bit rate mode : Constant
    Bit rate : 256 kb/s
    Channel(s) : 2 channels
    Sampling rate : 48.0 kHz
    Compression mode : Lossy
    Stream size : 281 MiB (12%)
    Alignment : Aligned on interleaves
    Interleave, duration : 24 ms (0.58 video frame)
    Title : Многоголосый, Киномания
    Writing library : LAME3.99.5Є Л

    Скриншоты для ознакомления



    Все одноименные релизы в Клубе
    Время раздачи: До первых скачавших (до появления первых 3-5 скачавших)


    Онлайн видео Терминатор 2: Судный день



    Терминатор 2: Судный день/Terminator 2: Judgment Day (1991) BDRip [Directors Cut/Special Edition] [Remastered 2017]
    Рейтинг →
     (голосов: 1, оценка 4/5, голосовать можно 1 раз )

    Другие торренты по теме:

  • Терминатор 2: Судный день / Terminator 2: Judgment Day (1991) BDRip [1080p] [Extended Special Edition] [hand made 60fps] скачать через торрент бесплатно
  • Терминатор 2: Судный день / Terminator 2: Judgment Day (Directors Cut) (1991) LDRip [H.264] [AVO] скачать через торрент бесплатно
  • Терминатор 2: Судный день / Terminator 2: Judgment Day (1991) HDRip [Directors Cut] скачать через торрент бесплатно
  • Терминатор 2: Судный день / Terminator 2: Judgment Day (1991) HDRip [Skynet Edition] [AVO] скачать через торрент бесплатно
  • Терминатор 2: Судный день / Terminator 2: Judgment Day (1991) BDRip [H.264 / 1080p-LQ] [Directors Cut] скачать через торрент бесплатно
  • Терминатор 2: Судный день / Terminator 2: Judgment Day (1991) BDRip [H.264 / 1080p] [Skynet Edition] скачать через торрент бесплатно
  • Терминатор 2: Судный день / Terminator 2: Judgment Day (1991) BDRip [H.264 / 1080p-LQ] [Directors Cut / Special Edition] скачать через торрент бесплатно
  • Терминатор 2: Судный день / Terminator 2: Judgment Day (1991) BDRip [H.265 / 1080p] [Special Edition] [Main10] [hand made remaster]


    • Комментарии (0):

      Информация

      Информация

        Посетители, находящиеся в группе Гости, не могут оставлять комментарии в данной новости.

        ↓ Меню




        ↓ Опрос

        Вы добавили сайт в закладки?
        Да
        Нет


        Top 10 за месяц (Фильмы)