.
Авторизация | Регистрация
Хочешь лучшие торренты? Добавь свой email!
Добавить

Торрент скачать бесплатно

  • support: webmaster@btracker.club
» » Барон / Baron (2016) SATRip торрент скачать бесплатно


    Барон / Baron (2016) SATRip торрент скачать бесплатно

    Опубликовал: fregat | Дата: 20-11-2017, 05:00 | .torrent скачали: 441

    Барон / Baron (2016) SATRipПроизводство: Узбекистан, Россия
    Жанр: Боевик, драма
    Режиссер: Рустам Садиев

    Актеры
    Джавахир Закиров, Улугбек Кадыров, Дилноза Кубаева, Андрей Смоляков, Павел Прилучный, Виктор Вержбицкий, Фархад Махмудов, Якуб Ахмедов, Шахзода Матчанова, Рано Шодиева

    Описание

    Злободневная экшен-драма о борьбе с наркобизнесом. Боксер-чемпион Батыр после драки с негодяями, пристававшими к его жене, попадает за решетку. Ради его спасения верная супруга идет на сделку с наркоторговцами, которая стоит ей жизни. Безутешный Батыр вливается в ряды спецслужб, чтобы положить конец героиновой империи.

    Релиз от: Алехаndr
    Продолжительность: 02: 46: 47
    Качество видео: SATRip
    Перевод: отсутствует
    Язык: узбекский, русский
    Субтитры: отсутствуют
    Видео: Xvid, 720x304 (2.35: 1), ~2360 Kbps
    Аудио: AC3, 2 ch, 192 Kbps

    Общее
    Полное имя : F: Барон (2016).by.Алехаndr.avi
    Формат : AVI
    Формат/Информация : Audio Video Interleave
    Профиль формата : OpenDML
    Размер файла : 2, 99 Гбайт
    Продолжительность : 2 ч. 46 м.
    Общий поток : 2563 Кбит/сек
    Программа кодирования : VirtualDubMod 1.5.10.3 |www.virtualdub-fr.org|| (build 2550/release)
    Библиотека кодирования : VirtualDubMod build 2550/release
    Видео
    Идентификатор : 0
    Формат : MPEG-4 Visual
    Профиль формата : Advanced Simple@L5
    Настройки формата : BVOP1/Custom Matrix
    Параметр BVOP формата : 1
    Параметр QPel формата : Нет
    Параметр GMC формата : Без точки перехода
    Параметр матрицы формата : Выборочная
    Идентификатор кодека : XVID
    Идентификатор кодека/Подсказка : XviD
    Продолжительность : 2 ч. 46 м.
    Битрейт : 2359 Кбит/сек
    Ширина : 720 пикселей
    Высота : 304 пикселя
    Соотношение сторон : 2, 35: 1
    Частота кадров : 30, 000 кадров/сек
    Цветовое пространство : YUV
    Субдискретизация насыщенности : 4: 2: 0
    Битовая глубина : 8 бит
    Тип развёртки : Прогрессивная
    Метод сжатия : С потерями
    Бит/(Пиксели*Кадры) : 0.359
    Размер потока : 2, 75 Гбайт (92%)
    Библиотека кодирования : XviD 1.2.1 (UTC 2008-12-04)
    Аудио
    Идентификатор : 1
    Формат : AC-3
    Формат/Информация : Audio Coding 3
    Идентификатор кодека : 2000
    Продолжительность : 2 ч. 46 м.
    Вид битрейта : Постоянный
    Битрейт : 192 Кбит/сек
    Каналы : 2 канала
    Расположение каналов : Front: L R
    Частота : 48, 0 КГц
    Частота кадров : 31, 250 кадров/сек (1536 SPF)
    Битовая глубина : 16 бит
    Метод сжатия : С потерями
    Размер потока : 229 Мбайт (7%)
    Выравнивание : Разделение по промежуткам
    Продолжительность промежутка : 33 мс. (1, 00 видеокадр)
    Время предзагрузки промежутка : 500 мс.
    ServiceKind/String : Complete Main

    Скриншоты для ознакомления



    Все одноименные релизы в Клубе
    Время раздачи: 24/7 (круглосуточно) (до появления первых 3-5 скачавших)


    Онлайн видео Барон



    Барон/Baron (2016) SATRip
    Рейтинг →
     (голосов: 1, оценка 3/5, голосовать можно 1 раз )

    Другие торренты по теме:

  • Барон Мюнхгаузен / Baron Prasil (1962) BDRip [H.264 / 1080p]
  • «Красный Барон» Манфред фон Рихтгофен / Der Rote Baron - Manfred von Richthofen (2015) SATRip


    • Комментарии (0):

      Информация

      Информация

        Посетители, находящиеся в группе Гости, не могут оставлять комментарии в данной новости.

        ↓ Меню




        ↓ Опрос

        Вы добавили сайт в закладки?
        Да
        Нет


        Top 10 за месяц (Фильмы)