.
Авторизация | Регистрация
Хочешь лучшие торренты? Добавь свой email!
Добавить

Торрент скачать бесплатно

  • support: webmaster@btracker.club
» » Одиночка / Le Solitaire (1987) BDRip [H.264 / 1080p] торрент скачать бесплатно


    Одиночка / Le Solitaire (1987) BDRip [H.264 / 1080p] торрент скачать бесплатно

    Опубликовал: fregat | Дата: 10-09-2017, 11:46 | .torrent скачали: 0

    Одиночка / Le Solitaire (1987) BDRip [H.264 / 1080p]Производство: Франция, Cerito Films, Sara Films
    Жанр: Боевик, Криминал
    Режиссер: Жак Дере

    Актеры
    Жан-Поль Бельмондо, Жан-Пьер Мало, Мишель Бон, Пьер Вернье, Франсуа Дюнойе, Франк Айя, Лоран Жандрон, Жан-Клод Де Горос, Ги Паннекин, Патриция Мальвуазен и др.

    Описание

    До каких границ может дойти служитель закона в борьбе с преступниками, которые границ не знают? Комиссара Стэна называли фашистом с куриными мозгами и стальными мускулами. Но он справедлив и надежен и не остановиться ни перед чем, чтобы отомстить за гибель своего напарника и друга...

    Возраст: 16+ (зрителям, достигшим 16 лет)
    Продолжительность: 01: 32: 06
    Качество видео: BDRip
    Перевод: Дублированный, многоголосый закадровый, двухголосый закадровый
    Субтитры: Русские
    Видео: AVC/H.264, 1920x1032, ~11 500 kbps
    Аудио 1: AC3, 48 KHz, 2ch, 192 kbps | Русский (Дубляж, Киностудия им. М. Горького)
    Аудио 2: AC3, 48 KHz, 2ch, 192 kbps | Русский (MVO, Cinema Prestige)
    Аудио 3: AC3, 48 KHz, 2ch, 192 kbps | Русский (DVO, НТВ+)
    Аудио 4: AC3, 48 KHz, 2ch, 192 kbps | Русский (DVO, Twister)
    Аудио 5: AC3, 48 KHz, 2ch, 448 kbps | Французский (Оригинал)

    Общее
    Уникальный идентификатор : 245553340488206021818587786584036722520 (0xB8BBDA6752346DC993F181699FE7C758)
    Полное имя : I: Жан-Поль БельмондоОдиночка_(Le Solitaire)_1987Одиночка. 1987.mkv
    Формат : Matroska
    Версия формата : Version 4/Version 2
    Размер файла : 8, 18 Гбайт
    Продолжительность : 1 ч. 32 м.
    Общий поток : 12, 7 Мбит/сек
    Название фильма : Release for Topmost
    Дата кодирования : UTC 2017-09-04 20: 10: 04
    Программа кодирования : mkvmerge v6.2.0 (\'Promised Land\') built on Apr 28 2013 12: 22: 01
    Библиотека кодирования : libebml v1.3.0 + libmatroska v1.4.0
    Attachment : Yes
    Видео
    Идентификатор : 1
    Формат : AVC
    Формат/Информация : Advanced Video Codec
    Профиль формата : High@L4.1
    Параметр CABAC формата : Да
    Параметр ReFrames формата : 10 кадров
    Идентификатор кодека : V_MPEG4/ISO/AVC
    Продолжительность : 1 ч. 32 м.
    Битрейт : 11, 5 Мбит/сек
    Ширина : 1920 пикселей
    Высота : 1032 пикселя
    Соотношение сторон : 1, 85: 1
    Режим частоты кадров : Постоянный
    Частота кадров : 25, 000 кадров/сек
    Цветовое пространство : YUV
    Субдискретизация насыщенности : 4: 2: 0
    Битовая глубина : 8 бит
    Тип развёртки : Прогрессивная
    Бит/(Пиксели*Кадры) : 0.232
    Размер потока : 7, 24 Гбайт (88%)
    Заголовок : Одиночка. 1987 (Release for Topmost)
    Библиотека кодирования : x264 core 146 r2538 121396c
    Настройки программы : cabac=1/ref=10/deblock=1: -3: -3/analyse=0x3: 0x133/me=umh/subme=9/psy=1/psy_rd=1.00: 0.15/mixed_ref=1/me_range=16/chroma_me=1/trellis=2/8x8dct=1/cqm=0/deadzone=21, 11/fast_pskip=0/chroma_qp_offset=-3/threads=9/lookahead_threads=2/sliced_threads=0/nr=0/decimate=0/interlaced=0/bluray_compat=0/constrained_intra=0/bframes=8/b_pyramid=2/b_adapt=2/b_bias=0/direct=3/weightb=1/open_gop=0/weightp=2/keyint=240/keyint_min=23/scenecut=40/intra_refresh=0/rc_lookahead=40/rc=2pass/mbtree=1/bitrate=11500/ratetol=1.0/qcomp=0.60/qpmin=0/qpmax=69/qpstep=4/cplxblur=20.0/qblur=0.5/ip_ratio=1.40/aq=1: 0.90
    Язык : French
    Default : Да
    Forced : Нет
    Аудио #1
    Идентификатор : 2
    Формат : AC-3
    Формат/Информация : Audio Coding 3
    Расширение режима : CM (complete main)
    Параметр Endianness формата : Big
    Идентификатор кодека : A_AC3
    Продолжительность : 1 ч. 32 м.
    Вид битрейта : Постоянный
    Битрейт : 192 Кбит/сек
    Каналы : 2 канала
    Расположение каналов : Front: L R
    Частота : 48, 0 КГц
    Битовая глубина : 16 бит
    Метод сжатия : С потерями
    Размер потока : 126 Мбайт (2%)
    Заголовок : AC3, 48 KHz, 2ch, 192 kbps | Дубляж, Киностудия им. М. Горького
    Язык : Russian
    Default : Да
    Forced : Нет
    Аудио #2
    Идентификатор : 3
    Формат : AC-3
    Формат/Информация : Audio Coding 3
    Расширение режима : CM (complete main)
    Параметр Endianness формата : Big
    Идентификатор кодека : A_AC3
    Продолжительность : 1 ч. 32 м.
    Вид битрейта : Постоянный
    Битрейт : 192 Кбит/сек
    Каналы : 2 канала
    Расположение каналов : Front: L R
    Частота : 48, 0 КГц
    Битовая глубина : 16 бит
    Метод сжатия : С потерями
    Размер потока : 126 Мбайт (2%)
    Заголовок : AC3, 48 KHz, 2ch, 192 kbps | MVO, Cinema Prestige
    Язык : Russian
    Default : Нет
    Forced : Нет
    Аудио #3
    Идентификатор : 4
    Формат : AC-3
    Формат/Информация : Audio Coding 3
    Расширение режима : CM (complete main)
    Параметр Endianness формата : Big
    Идентификатор кодека : A_AC3
    Продолжительность : 1 ч. 32 м.
    Вид битрейта : Постоянный
    Битрейт : 192 Кбит/сек
    Каналы : 2 канала
    Расположение каналов : Front: L R
    Частота : 48, 0 КГц
    Битовая глубина : 16 бит
    Метод сжатия : С потерями
    Размер потока : 126 Мбайт (2%)
    Заголовок : AC3, 48 KHz, 2ch, 192 kbps | DVO, НТВ+
    Язык : Russian
    Default : Нет
    Forced : Нет
    Аудио #4
    Идентификатор : 5
    Формат : AC-3
    Формат/Информация : Audio Coding 3
    Расширение режима : CM (complete main)
    Параметр Endianness формата : Big
    Идентификатор кодека : A_AC3
    Продолжительность : 1 ч. 32 м.
    Вид битрейта : Постоянный
    Битрейт : 192 Кбит/сек
    Каналы : 2 канала
    Расположение каналов : Front: L R
    Частота : 48, 0 КГц
    Битовая глубина : 16 бит
    Метод сжатия : С потерями
    Размер потока : 126 Мбайт (2%)
    Заголовок : AC3, 48 KHz, 2ch, 192 kbps | DVO, Twister
    Язык : Russian
    Default : Нет
    Forced : Нет
    Аудио #5
    Идентификатор : 6
    Формат : AC-3
    Формат/Информация : Audio Coding 3
    Расширение режима : CM (complete main)
    Параметр Endianness формата : Big
    Идентификатор кодека : A_AC3
    Продолжительность : 1 ч. 32 м.
    Вид битрейта : Постоянный
    Битрейт : 448 Кбит/сек
    Каналы : 2 канала
    Расположение каналов : Front: L R
    Частота : 48, 0 КГц
    Битовая глубина : 16 бит
    Метод сжатия : С потерями
    Размер потока : 295 Мбайт (4%)
    Заголовок : AC3, 48 KHz, 2ch, 448 kbps | Original
    Язык : French
    Default : Нет
    Forced : Нет
    Текст
    Идентификатор : 7
    Формат : UTF-8
    Идентификатор кодека : S_TEXT/UTF8
    Идентификатор кодека/Информация : UTF-8 Plain Text
    Язык : Russian
    Default : Да
    Forced : Нет

    Скриншоты для ознакомления




    Все одноименные релизы в Клубе
    Время раздачи: 24/7 до 5 скачавших (до появления первых 3-5 скачавших)

    Одиночка/Le Solitaire (1987) BDRip [H.264/1080p]
    Рейтинг →
     (голосов: 1, оценка 3/5, голосовать можно 1 раз )

    Другие торренты по теме:

  • Одиночка / En solitaire (2013) HDRip [VO] скачать через торрент бесплатно
  • Одиночка / En solitaire (2013) HDTV [H.264 / 1080i] скачать через торрент бесплатно
  • Одиночка / Le solitaire (1987) DVB скачать через торрент бесплатно
  • Одиночка / Le solitaire (1987) BDRip [H.264 / 720p]
  • Одиночка / Le solitaire (1987) BDRip [H.264]
  • Одиночка / Le Solitaire (1987) BDRip [H.265 / 1080p] [10-bit]


    • Комментарии (0):

      Информация

      Информация

        Посетители, находящиеся в группе Гости, не могут оставлять комментарии в данной новости.

        ↓ Меню




        ↓ Опрос

        Вы добавили сайт в закладки?
        Да
        Нет


        Top 10 за месяц (Фильмы)