.
Авторизация | Регистрация

Торрент скачать бесплатно

  • support: webmaster@btracker.club
» » Алекс Мэй | Новая Академия Секса для мужчин (2018) DVDRip [H.264] торрент скачать бесплатно


    Алекс Мэй | Новая Академия Секса для мужчин (2018) DVDRip [H.264] торрент скачать бесплатно

    Дата: 29-03-2019, 05:00 | .torrent скачали: 65

    Алекс Мэй | Новая Академия Секса для мужчин (2018) DVDRip [H.264]Автор (режиссер): Алекс Мэй
    Жанр: Сексология, Отношения

    Описание

    Не выходя из дома, в удобной обстановке потратьте 10 часов на изучение материала от Академии Секса. И Вы будете в числе менее чем 0, 1% мужчин. Мужчин, о которых мечтает каждая женщина – лучших любовниках планеты.
    Узнайте, как напрочь сносить крышу абсолютно любой женщине, займите в её душе особое место. Навсегда.
    Продолжительность: 10: 15: 39
    Качество видео: DVDRip
    Видео: AVC/H.264, 960х540, ~765 Kbps
    Аудио: AAC, 2 ch, 256 Kbps, CBR
    Код: выделить все

    General
    Complete name : C:TorrentsАлекс Мэй - Новая Академия Секса для мужчинМ1.mp4
    Format : MPEG-4
    Format profile : Base Media
    Codec ID : isom
    File size : 1.37 GiB
    Duration : 3h 10mn
    Overall bit rate : 1 030 Kbps
    Writing application : Lavf56.36.100
    Video
    ID : 1
    Format : AVC
    Format/Info : Advanced Video Codec
    Format profile :High@L3.1
    Format settings, CABAC : Yes
    Format settings, ReFrames : 8 frames
    Codec ID : avc1
    Codec ID/Info : Advanced Video Coding
    Duration : 3h 10mn
    Bit rate : 765 Kbps
    Width : 960 pixels
    Height : 540 pixels
    Display aspect ratio : 16:9
    Frame rate mode : Constant
    Frame rate : 25.000 fps
    Color space : YUV
    Chroma subsampling : 4:2:0
    Bit depth : 8 bits
    Scan type : Progressive
    Bits/(Pixel*Frame) : 0.059
    Stream size : 1.02 GiB (74%)
    Writing library : x264 core 152 r10 ba24899
    Encoding settings : cabac=1/ref=8/deblock=1:0:0/analyse=0x3:0x133/me=umh/subme=9/psy=1/psy_rd=1.00:0.00/mixed_ref=1/me_range=16/chroma_me=1/trellis=2/8x8dct=1/cqm=0/deadzone=21, 11/fast_pskip=1/chroma_qp_offset=-2/threads=17/lookahead_threads=1/sliced_threads=0/nr=0/decimate=1/interlaced=0/bluray_compat=0/stitchable=1/constrained_intra=0/bframes=3/b_pyramid=2/b_adapt=2/b_bias=0/direct=3/weightb=1/open_gop=0/weightp=2/keyint=infinite/keyint_min=25/scenecut=40/intra_refresh=0/rc_lookahead=60/rc=crf/mbtree=1/crf=20.0/qcomp=0.60/qpmin=5/qpmax=69/qpstep=4/vbv_maxrate=1650/vbv_bufsize=1800/crf_max=0.0/nal_hrd=none/filler=0/ip_ratio=1.40/aq=1:1.00
    Color primaries : BT.601 NTSC
    Transfer characteristics : BT.601
    Matrix coefficients : BT.601
    Audio
    ID : 2
    Format : AAC
    Format/Info : Advanced Audio Codec
    Format profile : LC
    Codec ID : 40
    Duration : 3h 10mn
    Bit rate mode : Constant
    Bit rate : 256 Kbps
    Channel(s) : 2 channels
    Channel positions : Front: L R
    Sampling rate : 48.0 KHz
    Compression mode : Lossy
    Stream size : 348 MiB (25%)
    Language : unk


    Алекс Мэй | Новая Академия Секса для мужчин (2018) DVDRip [H.264]
    Рейтинг →
     (голосов: 1, оценка 3/5, голосовать можно 1 раз )

    Другие торренты по теме:

  • Алекс Кош | Огненный Факультет (2014) [MP3]
  • Алекс Яновский | Наука Успеха (2014) [MP3] скачать через торрент бесплатно
  • Алекс Кош | Собрание сочинений [19 книг] (2006-2013) [FB2]
  • Алекс Мэй | Идеальный вечер для мужчин (2014) CamRip
  • Алекс Мэй | Идеальный вечер для женщин (2014) CamRip [сексология, соблазнение]
  • Алекс Кош | Огненный факультет (2014) [AAC|M4B]
  • Алекс Мэй | Сборник редких видео (6 записей) (2008-2014) CamRip
  • Алекс Громов, Ольга Шатохина | Историкум. Terra Istoria [сборник] (2015) [FB2] скачать через торрент бесплатно


    • Комментарии (0):

      Информация

      Информация

        Посетители, находящиеся в группе Гости, не могут оставлять комментарии в данной новости.

        ↓ Меню




        ↓ Опрос

        Вы добавили сайт в закладки?
        Да
        Нет


        Top 10 за месяц (Книги)