.
Авторизация | Регистрация

Торрент скачать бесплатно

  • support: webmaster@btracker.club
» » Lynda.com | Основные навыки обучения / Study Skills Fundamentals (2015) DVDRip [H.264] торрент скачать бесплатно


    Lynda.com | Основные навыки обучения / Study Skills Fundamentals (2015) DVDRip [H.264] торрент скачать бесплатно

    Дата: 29-03-2019, 05:00 | .torrent скачали: 16

    Lynda.com | Основные навыки обучения / Study Skills Fundamentals (2015) DVDRip [H.264]Автор (режиссер): Пол Новак/Paul Nowak
    Производство: Lynda.com
    Жанр: Обучение, Скорочтение, Мнемотехники

    Описание

    Основные навыки, которые будут полезны при изучении нового материала.
    Если вы хотите сдать на 100 баллов ваш следующий тест, экзамен или просто запомнить что-то по работе, например формулы, диаграммы, таблицы, причинно-следственные связи, то этот курс именно для вас.
    Пол Новак предлагает советы для улучшения вашей скорости чтения и понимания, для создания подробных примечаний, для сохранения информации в памяти. Начните прямо сейчас и прокачайте свои навыки обучения.
    Продолжительность: 01: 36: 46
    Качество видео: DVDRip
    Язык озвучки: Русский
    Cубтитры: Английские
    Видео: AVC/H.264, 960х540, ~260 Kbps
    Аудио: MP3, 2 ch, 128 Kbps, CBR
    Код: выделить все

    General
    Complete name : C:TorrentsLynda.com - Study Skills Fundamentals - Основные навыки обучения (2015 RUS)0. Вступление_01. Добро пожаловать.mp4
    Format : MPEG-4
    Format profile : Base Media
    Codec ID : isom
    File size : 2.77 MiB
    Duration : 58s 645ms
    Overall bit rate : 396 Kbps
    Writing application : Lavf55.19.104
    Video
    ID : 1
    Format : AVC
    Format/Info : Advanced Video Codec
    Format profile :High@L3.1
    Format settings, CABAC : Yes
    Format settings, ReFrames : 4 frames
    Codec ID : avc1
    Codec ID/Info : Advanced Video Coding
    Duration : 58s 626ms
    Bit rate : 260 Kbps
    Width : 960 pixels
    Height : 540 pixels
    Display aspect ratio : 16:9
    Frame rate mode : Constant
    Frame rate : 29.970 fps
    Color space : YUV
    Chroma subsampling : 4:2:0
    Bit depth : 8 bits
    Scan type : Progressive
    Bits/(Pixel*Frame) : 0.017
    Stream size : 1.82 MiB (66%)
    Writing library : x264 core 140 r2377 1ca7bb9
    Encoding settings : cabac=1/ref=3/deblock=1:0:0/analyse=0x3:0x113/me=hex/subme=7/psy=1/psy_rd=1.00:0.00/mixed_ref=1/me_range=16/chroma_me=1/trellis=1/8x8dct=1/cqm=0/deadzone=21, 11/fast_pskip=1/chroma_qp_offset=-2/threads=6/lookahead_threads=1/sliced_threads=0/nr=0/decimate=1/interlaced=0/bluray_compat=0/constrained_intra=0/bframes=3/b_pyramid=2/b_adapt=1/b_bias=0/direct=1/weightb=1/open_gop=0/weightp=2/keyint=250/keyint_min=25/scenecut=40/intra_refresh=0/rc_lookahead=40/rc=crf/mbtree=1/crf=24.0/qcomp=0.60/qpmin=0/qpmax=69/qpstep=4/ip_ratio=1.40/aq=1:1.00
    Language : English
    Audio
    ID : 2
    Format : MPEG Audio
    Format version : Version 1
    Format profile : Layer 3
    Codec ID : 6B
    Duration : 58s 645ms
    Bit rate mode : Constant
    Bit rate : 128 Kbps
    Channel(s) : 2 channels
    Sampling rate : 44.1 KHz
    Compression mode : Lossy
    Stream size : 916 KiB (32%)
    Language : Russian


    Lynda.com | Основные навыки обучения/Study Skills Fundamentals (2015) DVDRip [H.264]
    Рейтинг →
     (голосов: 1, оценка 5/5, голосовать можно 1 раз )

    Другие торренты по теме:

  • Lynda.com | Основные принципы дизайна логотипа (2013) PCRec [H.264 / 720p]


    • Комментарии (0):

      Информация

      Информация

        Посетители, находящиеся в группе Гости, не могут оставлять комментарии в данной новости.

        ↓ Меню




        ↓ Опрос

        Вы добавили сайт в закладки?
        Да
        Нет


        Top 10 за месяц (Книги)