.
Авторизация | Регистрация

Торрент скачать бесплатно

  • support: webmaster@btracker.club
» » Алексей Верютин | Онлайн-Марафон переговоры (2018) WEB-DL [H.264 / 720p-LQ] торрент скачать бесплатно


    Алексей Верютин | Онлайн-Марафон переговоры (2018) WEB-DL [H.264 / 720p-LQ] торрент скачать бесплатно

    Дата: 28-03-2019, 05:00 | .torrent скачали: 20

    Алексей Верютин | Онлайн-Марафон переговоры (2018) WEB-DL [H.264 / 720p-LQ]Автор (режиссер): Алексей Верютин
    Производство: Россия
    Жанр: Бизнес, Коммуникация, Саморазвитие

    Описание

    Марафон по переговорам создавался как инструмент профессионального использования для людей, чья жизнь так или иначе зависит от навыков общения.
    Продолжительность: 01: 23: 22
    Качество видео: WEB-DL
    Видео: AVC/H.264, 1280х720, ~604 Kbps
    Аудио: AAC, 2 ch, 126 Kbps

    General
    Complete name : D: ТренингиАЛЕКСЕЙ ВЕРЮТИН ОНЛАЙН-МАРАФОН ПЕРЕГОВОРЫЗадание 1 - НАВЫК ТРЕХПОЗИЦИОННОГО ВОСПРИЯТИЯ КОММУНИКАЦИИHD, 1280x720, Mp4.mp4
    Format : MPEG-4
    Format profile : Base Media/Version 2
    Codec ID : mp42 (isom/mp42)
    File size : 105 MiB
    Duration : 19 min 55 s
    Overall bit rate mode : Variable
    Overall bit rate : 734 kb/s
    Encoded date : UTC 2018-09-01 21: 35: 04
    Tagged date : UTC 2018-09-01 21: 35: 04
    gsst : 0
    gstd : 1195432
    Video
    ID : 1
    Format : AVC
    Format/Info : Advanced Video Codec
    Format profile : Main@L3.1
    Format settings : CABAC/3 Ref Frames
    Format settings, CABAC : Yes
    Format settings, RefFrames : 3 frames
    Codec ID : avc1
    Codec ID/Info : Advanced Video Coding
    Duration : 19 min 55 s
    Bit rate : 604 kb/s
    Width : 1 280 pixels
    Height : 720 pixels
    Display aspect ratio : 16: 9
    Frame rate mode : Constant
    Frame rate : 30.000 FPS
    Color space : YUV
    Chroma subsampling : 4: 2: 0
    Bit depth : 8 bits
    Scan type : Progressive
    Bits/(Pixel*Frame) : 0.022
    Stream size : 86.1 MiB (82%)
    Title : ISO Media file produced by Google Inc. Created on: 09/01/2018.
    Encoded date : UTC 2018-09-01 21: 35: 04
    Tagged date : UTC 2018-09-01 21: 35: 04
    Color range : Limited
    Color primaries : BT.709
    Transfer characteristics : BT.709
    Matrix coefficients : BT.709
    Codec configuration box : avcC
    Audio
    ID : 2
    Format : AAC LC
    Format/Info : Advanced Audio Codec Low Complexity
    Codec ID : mp4a-40-2
    Duration : 19 min 55 s
    Bit rate mode : Variable
    Bit rate : 126 kb/s
    Channel(s) : 2 channels
    Channel layout : L R
    Sampling rate : 44.1 kHz
    Frame rate : 43.066 FPS (1024 SPF)
    Compression mode : Lossy
    Stream size : 17.9 MiB (17%)
    Title : ISO Media file produced by Google Inc. Created on: 09/01/2018.
    Encoded date : UTC 2018-09-01 21: 35: 04
    Tagged date : UTC 2018-09-01 21: 35: 04
    General
    Complete name : D: ТренингиАЛЕКСЕЙ ВЕРЮТИН ОНЛАЙН-МАРАФОН ПЕРЕГОВОРЫЗадание 2 - НАВЫК ПЕРЕХОДА ИЗ ПОЗИЦИОННОЙ БОРЬБЫ В ПОЛЕHD, 1280x720, Mp4.mp4
    Format : MPEG-4
    Format profile : Base Media/Version 2
    Codec ID : mp42 (isom/mp42)
    File size : 104 MiB
    Duration : 19 min 17 s
    Overall bit rate mode : Variable
    Overall bit rate : 755 kb/s
    Encoded date : UTC 2018-09-04 06: 30: 28
    Tagged date : UTC 2018-09-04 06: 30: 28
    gsst : 0
    gstd : 1158002
    Video
    ID : 1
    Format : AVC
    Format/Info : Advanced Video Codec
    Format profile : Main@L3.1
    Format settings : CABAC/3 Ref Frames
    Format settings, CABAC : Yes
    Format settings, RefFrames : 3 frames
    Codec ID : avc1
    Codec ID/Info : Advanced Video Coding
    Duration : 19 min 17 s
    Bit rate : 626 kb/s
    Width : 1 280 pixels
    Height : 720 pixels
    Display aspect ratio : 16: 9
    Frame rate mode : Constant
    Frame rate : 30.000 FPS
    Color space : YUV
    Chroma subsampling : 4: 2: 0
    Bit depth : 8 bits
    Scan type : Progressive
    Bits/(Pixel*Frame) : 0.023
    Stream size : 86.4 MiB (83%)
    Title : ISO Media file produced by Google Inc. Created on: 09/03/2018.
    Encoded date : UTC 2018-09-04 06: 30: 28
    Tagged date : UTC 2018-09-04 06: 30: 28
    Color range : Limited
    Color primaries : BT.709
    Transfer characteristics : BT.709
    Matrix coefficients : BT.709
    Codec configuration box : avcC
    Audio
    ID : 2
    Format : AAC LC
    Format/Info : Advanced Audio Codec Low Complexity
    Codec ID : mp4a-40-2
    Duration : 19 min 17 s
    Bit rate mode : Variable
    Bit rate : 126 kb/s
    Channel(s) : 2 channels
    Channel layout : L R
    Sampling rate : 44.1 kHz
    Frame rate : 43.066 FPS (1024 SPF)
    Compression mode : Lossy
    Stream size : 17.3 MiB (17%)
    Title : ISO Media file produced by Google Inc. Created on: 09/03/2018.
    Encoded date : UTC 2018-09-04 06: 30: 28
    Tagged date : UTC 2018-09-04 06: 30: 28
    General
    Complete name : D: ТренингиАЛЕКСЕЙ ВЕРЮТИН ОНЛАЙН-МАРАФОН ПЕРЕГОВОРЫЗадание 3 - НАВЫК ВЫЯСНЕНИЯ КОМПЛЕКСНЫХ ЭКВИВАЛЕНТОВHD, 1280x720, Mp4.mp4
    Format : MPEG-4
    Format profile : Base Media/Version 2
    Codec ID : mp42 (isom/mp42)
    File size : 114 MiB
    Duration : 19 min 4 s
    Overall bit rate mode : Variable
    Overall bit rate : 834 kb/s
    Encoded date : UTC 2018-09-07 08: 51: 57
    Tagged date : UTC 2018-09-07 08: 51: 57
    gsst : 0
    gstd : 1144581
    Video
    ID : 1
    Format : AVC
    Format/Info : Advanced Video Codec
    Format profile : Main@L3.1
    Format settings : CABAC/3 Ref Frames
    Format settings, CABAC : Yes
    Format settings, RefFrames : 3 frames
    Codec ID : avc1
    Codec ID/Info : Advanced Video Coding
    Duration : 19 min 4 s
    Bit rate : 705 kb/s
    Width : 1 280 pixels
    Height : 720 pixels
    Display aspect ratio : 16: 9
    Frame rate mode : Constant
    Frame rate : 30.000 FPS
    Color space : YUV
    Chroma subsampling : 4: 2: 0
    Bit depth : 8 bits
    Scan type : Progressive
    Bits/(Pixel*Frame) : 0.025
    Stream size : 96.1 MiB (84%)
    Title : ISO Media file produced by Google Inc. Created on: 09/07/2018.
    Encoded date : UTC 2018-09-07 08: 51: 57
    Tagged date : UTC 2018-09-07 08: 51: 57
    Color range : Limited
    Color primaries : BT.709
    Transfer characteristics : BT.709
    Matrix coefficients : BT.709
    Codec configuration box : avcC
    Audio
    ID : 2
    Format : AAC LC
    Format/Info : Advanced Audio Codec Low Complexity
    Codec ID : mp4a-40-2
    Duration : 19 min 4 s
    Bit rate mode : Variable
    Bit rate : 126 kb/s
    Channel(s) : 2 channels
    Channel layout : L R
    Sampling rate : 44.1 kHz
    Frame rate : 43.066 FPS (1024 SPF)
    Compression mode : Lossy
    Stream size : 17.1 MiB (15%)
    Title : ISO Media file produced by Google Inc. Created on: 09/07/2018.
    Encoded date : UTC 2018-09-07 08: 51: 57
    Tagged date : UTC 2018-09-07 08: 51: 57
    General
    Complete name : D: ТренингиАЛЕКСЕЙ ВЕРЮТИН ОНЛАЙН-МАРАФОН ПЕРЕГОВОРЫЗадание 4 - НАВЫК НЕТВОРКИНГ ВИДЕТЬ ЧЕЛОВЕКА, КАК ЧЕЛОВЕКАHD, 1280x720, Mp4.mp4
    Format : MPEG-4
    Format profile : Base Media/Version 2
    Codec ID : mp42 (isom/mp42)
    File size : 183 MiB
    Duration : 25 min 6 s
    Overall bit rate mode : Variable
    Overall bit rate : 1 022 kb/s
    Encoded date : UTC 2018-09-10 10: 34: 12
    Tagged date : UTC 2018-09-10 10: 34: 12
    gsst : 0
    gstd : 1506719
    Video
    ID : 1
    Format : AVC
    Format/Info : Advanced Video Codec
    Format profile : Main@L3.1
    Format settings : CABAC/3 Ref Frames
    Format settings, CABAC : Yes
    Format settings, RefFrames : 3 frames
    Codec ID : avc1
    Codec ID/Info : Advanced Video Coding
    Duration : 25 min 6 s
    Bit rate : 892 kb/s
    Width : 1 280 pixels
    Height : 720 pixels
    Display aspect ratio : 16: 9
    Frame rate mode : Constant
    Frame rate : 30.000 FPS
    Color space : YUV
    Chroma subsampling : 4: 2: 0
    Bit depth : 8 bits
    Scan type : Progressive
    Bits/(Pixel*Frame) : 0.032
    Stream size : 160 MiB (87%)
    Title : ISO Media file produced by Google Inc. Created on: 09/10/2018.
    Encoded date : UTC 2018-09-10 10: 34: 12
    Tagged date : UTC 2018-09-10 10: 34: 12
    Color range : Limited
    Color primaries : BT.709
    Transfer characteristics : BT.709
    Matrix coefficients : BT.709
    Codec configuration box : avcC
    Audio
    ID : 2
    Format : AAC LC
    Format/Info : Advanced Audio Codec Low Complexity
    Codec ID : mp4a-40-2
    Duration : 25 min 6 s
    Bit rate mode : Variable
    Bit rate : 126 kb/s
    Channel(s) : 2 channels
    Channel layout : L R
    Sampling rate : 44.1 kHz
    Frame rate : 43.066 FPS (1024 SPF)
    Compression mode : Lossy
    Stream size : 22.6 MiB (12%)
    Title : ISO Media file produced by Google Inc. Created on: 09/10/2018.
    Encoded date : UTC 2018-09-10 10: 34: 12
    Tagged date : UTC 2018-09-10 10: 34: 12


    Алексей Верютин | Онлайн-Марафон переговоры (2018) WEB-DL [H.264/720p-LQ]
    Рейтинг →
     (голосов: 1, оценка 4/5, голосовать можно 1 раз )

    Другие торренты по теме:

  • Алексей Верютин | Пакет тренингов по бизнесу (2011-2015) [CamRip, mp3, ppt, pptx, pdf, mhtml, html, doc] [H.264]


    • Комментарии (0):

      Информация

      Информация

        Посетители, находящиеся в группе Гости, не могут оставлять комментарии в данной новости.

        ↓ Меню




        ↓ Опрос

        Вы добавили сайт в закладки?
        Да
        Нет


        Top 10 за месяц (Книги)