.
Авторизация | Регистрация
Хочешь лучшие торренты? Добавь свой email!
Добавить

Торрент скачать бесплатно

  • support: webmaster@btracker.club
» » Джама Джурабаев | Продвинутое 3D рисование / Advanced 3d painting (2017) PCRec [H.264 / 1080p-LQ] [EN] торрент скачать бесплатно


    Джама Джурабаев | Продвинутое 3D рисование / Advanced 3d painting (2017) PCRec [H.264 / 1080p-LQ] [EN] торрент скачать бесплатно

    Опубликовал: fregat | Дата: 14-03-2019, 05:00 | .torrent скачали: 0

    Джама Джурабаев | Продвинутое 3D рисование / Advanced 3d painting (2017) PCRec [H.264 / 1080p-LQ] [EN]Автор (режиссер): Джама Джурабаев/Jama Jurabaev
    Производство: Gumroad
    Жанр: Рисование, Photoshop

    Описание

    В этом курсе я покажу продвинутые методы 3D рисования в Photoshop.
    Эта техника позволит вам оживить ваши рисунки и легко настроить вашу композицию.
    Также это даст вам полный контроль над дизайном и сюжетом рисунка.
    Продолжительность: 01: 22: 06
    Качество видео: PCRec
    Перевод: Отсутствует
    Язык озвучки: Английский
    Видео: AVC/H.264, 1920x1080, ~3636 Kbps
    Аудио: AAC, 2 ch, 192 Kbps, VBR
    Код: выделить все

    General
    Complete name : C:TorrentsJama Jurabaev - Advanced 3d painting2_Advanced 3D painting_Instances.mp4
    Format : MPEG-4
    Codec ID : M4V
    File size : 860 MiB
    Duration : 31mn 23s
    Overall bit rate mode : Variable
    Overall bit rate : 3 829 Kbps
    Encoded date : UTC 2017-11-20 08:06:14
    Tagged date : UTC 2017-11-20 08:06:24
    ©TIM : 00:00:00:00
    ©TSC : 30
    ©TSZ : 1
    Video
    ID : 1
    Format : AVC
    Format/Info : Advanced Video Codec
    Format profile :Main@L4.1
    Format settings, CABAC : No
    Format settings, ReFrames : 2 frames
    Format settings, GOP : M=1, N=30
    Codec ID : avc1
    Codec ID/Info : Advanced Video Coding
    Duration : 31mn 23s
    Bit rate : 3 636 Kbps
    Width : 1 920 pixels
    Height : 1 080 pixels
    Display aspect ratio : 16:9
    Frame rate mode : Constant
    Frame rate : 30.000 fps
    Standard : NTSC
    Color space : YUV
    Chroma subsampling : 4:2:0
    Bit depth : 8 bits
    Scan type : Progressive
    Bits/(Pixel*Frame) : 0.058
    Stream size : 816 MiB (95%)
    Language : English
    Encoded date : UTC 2017-11-20 08:06:14
    Tagged date : UTC 2017-11-20 08:06:14
    Color primaries : BT.709
    Transfer characteristics : BT.709
    Matrix coefficients : BT.709
    Audio
    ID : 2
    Format : AAC
    Format/Info : Advanced Audio Codec
    Format profile : LC
    Codec ID : 40
    Duration : 31mn 23s
    Source duration : 31mn 23s
    Bit rate mode : Variable
    Bit rate : 192 Kbps
    Maximum bit rate : 289 Kbps
    Channel(s) : 2 channels
    Channel positions : Front: L R
    Sampling rate : 48.0 KHz
    Compression mode : Lossy
    Stream size : 42.5 MiB (5%)
    Source stream size : 42.5 MiB (5%)
    Language : English
    Encoded date : UTC 2017-11-20 08:06:14
    Tagged date : UTC 2017-11-20 08:06:14


    Джама Джурабаев | Продвинутое 3D рисование/Advanced 3d painting (2017) PCRec [H.264/1080p-LQ] [EN]
    Рейтинг →
     (голосов: 1, оценка 4/5, голосовать можно 1 раз )

    Другие торренты по теме:

  • Джама Джурабаев | Blender 2.8: Превратите ваш 2D-рисунок в 3D-модель с помощью Grease Pencil / Blender 2.8: Turn your 2D drawing into a 3D model using Grease Pencil (2018) PCRec [H.264 / 1080p-LQ] [EN]
  • Джама Джурабаев | Руководство по Grease Pencil в Blender / Blender Grease Pencil Tutorial (2018) PCRec [H.264 / 1080p-LQ] [EN]
  • Джама Джурабаев | Blender 2.8: Расширенное руководство по Grease Pencil / Blender 2.8: Advanced Grease Pencil Tutorial (2018) PCRec [H.264 / 1080p-LQ] [EN]
  • Джама Джурабаев | Как создать панорамное 360 / VR изображение. Часть I / How to create a panoramic 360 / VR painting VOL.I (2016) PCRec [H.264 / 1080p-LQ] [EN]
  • Джама Джурабаев | Как создать панорамное 360 / VR изображение. Часть II / How to create a panoramic 360 / VR painting VOL.II (2017) PCRec [H.264 / 1080p-LQ] [EN]
  • Джама Джурабаев | Введение в 3D концепт дизайн / Intro to 3D Concept Design (2016) PCRec [H.264 / 1080p-LQ] [EN]
  • Джама Джурабаев | Сюжетный концепт арт / Narrative Concept Art (2016) PCRec [H.264 / 1080p-LQ] [EN]
  • Джама Джурабаев | Как создавать кинематографичные городские ландшафты / How to create cinematic cityscapes (2018) PCRec [H.264 / 1080p-LQ] [EN]


    • Комментарии (0):

      Информация

      Информация

        Посетители, находящиеся в группе Гости, не могут оставлять комментарии в данной новости.

        ↓ Меню




        ↓ Опрос

        Вы добавили сайт в закладки?
        Да
        Нет


        Top 10 за месяц (Книги)

        Книжная подборка | Миры Содружества «Вселенная EVE-online» [624 книги] (1992-2018) [FB2, DOC]

        (скачиваний: 146)
        В.М. Жабцев | Большая книга электрика. Самое полное иллюстрированное руководство (2017) [PDF]

        (скачиваний: 110)
        Екатерина Макарова | Bravo, Penis! Об интимной жизни глазами врача (2019) [FB2]

        (скачиваний: 91)
        Серия книг | Рисуем на коленке [6 книг] (2016-2107) [PDF]

        (скачиваний: 84)
        Альберт Джексон, Дейвид Дэй | Мастер ремонта (2017) [PDF]

        (скачиваний: 83)
        Владимир Зещинский | Наяль Давье. Барон пограничья (2017) [FB2]

        (скачиваний: 82)
        Сергей Тармашев | Каждому своё 3 (2018) [FB2]

        (скачиваний: 81)
        Анджей Гришевский, Пшемыслав Пиларски | ОН. Интимный разговор про тот самый орган (2019) [FB2]

        (скачиваний: 79)
        Роберт Саттон | Как выжить среди м*даков. Лучшие практики (2018) [FB2, EPUB, MOBI] [18+]

        (скачиваний: 75)
        Филип Тетлок, Дэн Гарднер | Думай медленно – предсказывай точно. Искусство и наука предвидеть опасность (2018) [FB2]

        (скачиваний: 70)