.
Авторизация | Регистрация
Хочешь лучшие торренты? Добавь свой email!
Добавить

Торрент скачать бесплатно

  • support: webmaster@btracker.club
» » Александр Чалдрян | Практикум по ретуши женского портрета (2018) PCRec [H.264] торрент скачать бесплатно


    Александр Чалдрян | Практикум по ретуши женского портрета (2018) PCRec [H.264] торрент скачать бесплатно

    Опубликовал: fregat | Дата: 3-02-2019, 05:00 | .torrent скачали: 0

    Александр Чалдрян | Практикум по ретуши женского портрета (2018) PCRec [H.264]Автор (режиссер): Александр Чалдрян
    Производство: LiveClasses
    Жанр: Обучающее видео, Photoshop, Фотография

    Описание

    Отработай цикл ретуши для разных типов лиц!
    Это – сугубо практический класс по ретуши для тех, кто уже изучил основные приемы и постоянно практикует ретушь женских лиц. Как правило, у вас уже есть какой-то наработанный цикл, который, возможно, занимает больше времени, чем вам хотелось бы, или не приводит к качеству, который был бы приемлем для вас или ваших клиенток. Посмотрите, как это делает эксперт!
    Продолжительность: 02: 03: 58
    Качество видео: PCRec
    Видео: AVC/H.264, 1440×804, ~3000 Kbps
    Аудио: AAC, 2 ch, ~160 Kbps

    General
    Complete name : ~/LiveClasses - Саша Чалдрян - Практикум по ретуши женского портрета.mp4
    Format : MPEG-4
    Format profile : Base Media/Version 2
    Codec ID : mp42 (isom/iso2/avc1/mp41)
    File size : 2.71 GiB
    Duration : 2 h 3 min
    Overall bit rate mode : Variable
    Overall bit rate : 3 131 kb/s
    Video
    ID : 2
    Format : AVC
    Format/Info : Advanced Video Codec
    Format profile : Main@L3.2
    Format settings : CABAC/2 Ref Frames
    Format settings, CABAC : Yes
    Format settings, ReFrames : 2 frames
    Codec ID : avc1
    Codec ID/Info : Advanced Video Coding
    Duration : 2 h 3 min
    Bit rate mode : Variable
    Bit rate : 3 003 kb/s
    Maximum bit rate : 768 kb/s
    Width : 1 440 pixels
    Height : 804 pixels
    Display aspect ratio : 16: 9
    Frame rate mode : Constant
    Frame rate : 25.000 FPS
    Color space : YUV
    Chroma subsampling : 4: 2: 0
    Bit depth : 8 bits
    Scan type : Progressive
    Bits/(Pixel*Frame) : 0.104
    Stream size : 2.60 GiB (96%)
    Color primaries : BT.709
    Transfer characteristics : BT.709
    Matrix coefficients : BT.709
    Codec configuration box : avcC
    Audio
    ID : 1
    Format : AAC LC
    Format/Info : Advanced Audio Codec Low Complexity
    Codec ID : mp4a-40-2
    Duration : 2 h 3 min
    Bit rate mode : Variable
    Bit rate : 125 kb/s
    Maximum bit rate : 156 kb/s
    Channel(s) : 2 channels
    Channel layout : L R
    Sampling rate : 44.1 kHz
    Frame rate : 43.066 FPS (1024 SPF)
    Compression mode : Lossy
    Stream size : 111 MiB (4%)


    Александр Чалдрян | Практикум по ретуши женского портрета (2018) PCRec [H.264]
    Рейтинг →
     (голосов: 1, оценка 3/5, голосовать можно 1 раз )

    Другие торренты по теме:

  • [Profileschool] Алена Полосухина и Александр Чалдрян | МК Предметная съемка 2.0 (2014) PCRec
  • [Profileschool] Александр Чалдрян | Авторская обработка. Как это сделано (2014) PCRec
  • [Profileschool] Александр Чалдрян | Коммерческая ретушь (2015) PCRec [H.264 / 1080p] скачать через торрент бесплатно
  • Александр Чалдрян | Ask a Pro. Photoshop: на что способен человек (2015) WEB-DL [H.264]
  • Александр Чалдрян | Коммерческая ретушь (2017) PCRec [H.264]
  • Александр Чалдрян | Adobe Photoshop: Быстрый старт (2018) TS
  • Александр Чалдрян | Обзор плагинов Nik Collection (2018) PCRec [H.264]


    • Комментарии (0):

      Информация

      Информация

        Посетители, находящиеся в группе Гости, не могут оставлять комментарии в данной новости.

        ↓ Меню




        ↓ Опрос

        Вы добавили сайт в закладки?
        Да
        Нет


        Top 10 за месяц (Книги)

        Н.Д. Горбачева (ред.) | Иллюстрированный самоучитель английского языка (2018) [PDF]

        (скачиваний: 96)
        Пол Аллам, Дэвид МакГиннесс | Все сладкое. Превосходные рецепты из легендарной кондитерской (2019) [PDF]

        (скачиваний: 86)
        Журнал | Радио №1 (январь 2019) [DJVU]

        (скачиваний: 81)
        Джен Синсеро | НЕ НОЙ. Только тот, кто перестал сетовать на судьбу, может стать богатым (2019) [FB2]

        (скачиваний: 70)
        Сьюзан Блюм, Мишель Бендер | Программа восстановления иммунной системы (2018) [FB2]

        (скачиваний: 65)
        Сергей Лукьяненко | Кайноzой (2018) [FB2]

        (скачиваний: 61)
        Дмитрий Лубнин | Project woman. Тонкости настройки женского организма: узнай, как работает твое тело (2018) [FB2]

        (скачиваний: 59)
        Саба Джанджгава | Король эклеров (2019) [PDF]

        (скачиваний: 58)
        А. Чудова (ред.) | Лучшие уроки. Рисунок карандашом за 30 минут (2016) [PDF]

        (скачиваний: 53)
        Книжная подборка | Миры Содружества «Вселенная EVE-online» [624 книги] (1992-2018) [FB2, DOC]

        (скачиваний: 53)