.
Авторизация | Регистрация
Хочешь лучшие торренты? Добавь свой email!
Добавить

Торрент скачать бесплатно

  • support: webmaster@btracker.club
» » Ильяс Ахмедов | Final Cut Pro X - Импорт материала (2018) PCRec [H.264] торрент скачать бесплатно


    Ильяс Ахмедов | Final Cut Pro X - Импорт материала (2018) PCRec [H.264] торрент скачать бесплатно

    Опубликовал: fregat | Дата: 3-02-2019, 05:00 | .torrent скачали: 0

    Ильяс Ахмедов | Final Cut Pro X - Импорт материала (2018) PCRec [H.264]Автор (режиссер): Ильяс Ахмедов
    Производство: LiveClasses
    Жанр: Обучающее видео, Final Cut Pro X

    Описание

    Начни путь монтажера – стань логгером!
    Для начинающего монтажера освоение профессии логгера – первый важный стратегический шаг. Логгер в постпродакшн-студии отвечает за организацию, синхронизацию отснятого материала и грамотное ведение проекта до окончания цветокоррекции. Логгеры нужны в кино и на телевидение, а попав на площадку и начав путь практика уже можно планировать свое развитие в любой специализации.
    Продолжительность: 01: 40: 42
    Качество видео: PCRec
    Видео: AVC/H.264, 1440×804, ~2500 Kbps
    Аудио: AAC, 2 ch, ~160 Kbps

    General
    Complete name : ~/LiveClasses - Ильяс Ахмедов - Final Cut Pro X - Импорт материала.mp4
    Format : MPEG-4
    Format profile : Base Media/Version 2
    Codec ID : mp42 (isom/iso2/avc1/mp41)
    File size : 1.87 GiB
    Duration : 1 h 40 min
    Overall bit rate mode : Variable
    Overall bit rate : 2 653 kb/s
    Video
    ID : 2
    Format : AVC
    Format/Info : Advanced Video Codec
    Format profile : Main@L3.2
    Format settings : CABAC/2 Ref Frames
    Format settings, CABAC : Yes
    Format settings, ReFrames : 2 frames
    Codec ID : avc1
    Codec ID/Info : Advanced Video Coding
    Duration : 1 h 40 min
    Bit rate mode : Variable
    Bit rate : 2 499 kb/s
    Maximum bit rate : 768 kb/s
    Width : 1 440 pixels
    Height : 804 pixels
    Display aspect ratio : 16: 9
    Frame rate mode : Constant
    Frame rate : 25.000 FPS
    Color space : YUV
    Chroma subsampling : 4: 2: 0
    Bit depth : 8 bits
    Scan type : Progressive
    Bits/(Pixel*Frame) : 0.086
    Stream size : 1.76 GiB (94%)
    Color primaries : BT.709
    Transfer characteristics : BT.709
    Matrix coefficients : BT.709
    Codec configuration box : avcC
    Audio
    ID : 1
    Format : AAC LC
    Format/Info : Advanced Audio Codec Low Complexity
    Codec ID : mp4a-40-2
    Duration : 1 h 40 min
    Bit rate mode : Variable
    Bit rate : 150 kb/s
    Maximum bit rate : 167 kb/s
    Channel(s) : 2 channels
    Channel layout : L R
    Sampling rate : 44.1 kHz
    Frame rate : 43.066 FPS (1024 SPF)
    Compression mode : Lossy
    Stream size : 108 MiB (6%)


    Ильяс Ахмедов | Final Cut Pro X - Импорт материала (2018) PCRec [H.264]
    Рейтинг →
     (голосов: 1, оценка 3/5, голосовать можно 1 раз )

    Другие торренты по теме:

  • Ильяс Ахмедов | Основы работы в Mac OS X (2017) PCRec


    • Комментарии (0):

      Информация

      Информация

        Посетители, находящиеся в группе Гости, не могут оставлять комментарии в данной новости.

        ↓ Меню




        ↓ Опрос

        Вы добавили сайт в закладки?
        Да
        Нет


        Top 10 за месяц (Книги)

        Н.Д. Горбачева (ред.) | Иллюстрированный самоучитель английского языка (2018) [PDF]

        (скачиваний: 94)
        Пол Аллам, Дэвид МакГиннесс | Все сладкое. Превосходные рецепты из легендарной кондитерской (2019) [PDF]

        (скачиваний: 82)
        Журнал | Радио №1 (январь 2019) [DJVU]

        (скачиваний: 80)
        Джен Синсеро | НЕ НОЙ. Только тот, кто перестал сетовать на судьбу, может стать богатым (2019) [FB2]

        (скачиваний: 69)
        Сьюзан Блюм, Мишель Бендер | Программа восстановления иммунной системы (2018) [FB2]

        (скачиваний: 65)
        Сергей Лукьяненко | Кайноzой (2018) [FB2]

        (скачиваний: 61)
        Дмитрий Лубнин | Project woman. Тонкости настройки женского организма: узнай, как работает твое тело (2018) [FB2]

        (скачиваний: 58)
        Саба Джанджгава | Король эклеров (2019) [PDF]

        (скачиваний: 58)
        Книжная подборка | Миры Содружества «Вселенная EVE-online» [624 книги] (1992-2018) [FB2, DOC]

        (скачиваний: 52)
        Дмитрий Лубнин | Честный разговор с российским гинекологом. 28 секретных глав для женщин (2014) [FB2]

        (скачиваний: 51)