.
Авторизация | Регистрация
Хочешь лучшие торренты? Добавь свой email!
Добавить

Торрент скачать бесплатно

  • support: webmaster@btracker.club
» » Lynda.com | Основы построения бренда (2014) HDRip [H.264 / 720p-LQ] торрент скачать бесплатно


    Lynda.com | Основы построения бренда (2014) HDRip [H.264 / 720p-LQ] торрент скачать бесплатно

    Опубликовал: fregat | Дата: 3-02-2019, 05:00 | .torrent скачали: 0

    Lynda.com | Основы построения бренда (2014) HDRip [H.264 / 720p-LQ]Автор (режиссер): Lorrie Thomas Ross
    Производство: Lynda.com
    Жанр: Обучающее
    Оригинальное название: Brand Building Basics

    Описание

    В рамках этого небольшого курса, автор тренингов, оратор и маркетинговый эксперт Лори Томас Росс, последовательно, коммуникативно и максимально доступно, представляет обзор базовых понятий брендинга для вашего бизнеса и лично для вас. В данном курсе показано, как иллюстрации, текст и рыночное позиционирование могут помочь вам увидеть ваших покупателей и получить их доверие. Он включает в себя реальные примеры успешных брендов, и объяснение того, как следующие аспекты: цвет, логотип и шрифты, отсутствие активности в Интернет, воздействуют на ваш успех.
    Продолжительность: 00: 25: 15
    Качество видео: HDRip
    Видео: AVC/H.264, 1280x720, ~4013 Kbps
    Аудио: MP3, 2 ch, 128 Kbps

    Общее
    Полное имя : Lynda.com - Основы построения брендаОсновы построения бренда00. Добро пожаловать.avi
    Формат : AVI
    Формат/Информация : Audio Video Interleave
    Размер файла : 29, 7 Мбайт
    Продолжительность : 59 с. 893 мс.
    Общий поток : 4154 Кбит/сек
    Программа кодирования : VirtualDubMod 1.5.10.2 (build 2540/release)
    Библиотека кодирования : VirtualDubMod build 2540/release
    Видео
    Идентификатор : 0
    Формат : AVC
    Формат/Информация : Advanced Video Codec
    Профиль формата : Main@L3.1
    Настройки формата : CABAC/2 Ref Frames
    Параметр CABAC формата : Да
    Параметр RefFrames формата : 2 кадра
    Идентификатор кодека : H264
    Продолжительность : 59 с. 893 мс.
    Битрейт : 4013 Кбит/сек
    Ширина : 1280 пикселей
    Высота : 720 пикселей
    Соотношение сторон : 16: 9
    Режим частоты кадров : Переменный
    Частота кадров : 29, 970 (30000/1001) кадров/сек
    Цветовое пространство : YUV
    Субдискретизация насыщенности : 4: 2: 0
    Битовая глубина : 8 бит
    Тип развёртки : Прогрессивная
    Бит/(Пиксели*Кадры) : 0.145
    Размер потока : 28, 7 Мбайт (97%)
    Аудио
    Идентификатор : 1
    Формат : MPEG Audio
    Версия формата : Version 1
    Профиль формата : Layer 3
    Идентификатор кодека : 55
    Идентификатор кодека/Подсказка : MP3
    Продолжительность : 59 с. 893 мс.
    Вид битрейта : Постоянный
    Битрейт : 128 Кбит/сек
    Каналы : 2 канала
    Частота : 44, 1 КГц
    Метод сжатия : С потерями
    Размер потока : 936 Кбайт (3%)
    Выравнивание : Разделение по промежуткам
    Продолжительность промежутка : 34 мс. (1, 01 видеокадр)
    Время предзагрузки промежутка : 500 мс.


    Lynda.com | Основы построения бренда (2014) HDRip [H.264/720p-LQ]
    Рейтинг →
     (голосов: 1, оценка 3/5, голосовать можно 1 раз )

    Другие торренты по теме:

  • lynda.com | Foundations of Photography: Composition / Основы фотографии: Композиция (2011) [Ru] PCRec скачать через торрент бесплатно
  • Lynda.com | Основы Веб Технологий / Web Technology Fundamentals†(2013) PCRec скачать через торрент бесплатно
  • Lynda.com | Основы программирования: объектно-ориентированное проектирование (2012) [RU / EN, EN Sub] PCRec


    • Комментарии (0):

      Информация

      Информация

        Посетители, находящиеся в группе Гости, не могут оставлять комментарии в данной новости.

        ↓ Меню




        ↓ Опрос

        Вы добавили сайт в закладки?
        Да
        Нет


        Top 10 за месяц (Книги)

        Н.Д. Горбачева (ред.) | Иллюстрированный самоучитель английского языка (2018) [PDF]

        (скачиваний: 96)
        Пол Аллам, Дэвид МакГиннесс | Все сладкое. Превосходные рецепты из легендарной кондитерской (2019) [PDF]

        (скачиваний: 86)
        Журнал | Радио №1 (январь 2019) [DJVU]

        (скачиваний: 81)
        Джен Синсеро | НЕ НОЙ. Только тот, кто перестал сетовать на судьбу, может стать богатым (2019) [FB2]

        (скачиваний: 70)
        Сьюзан Блюм, Мишель Бендер | Программа восстановления иммунной системы (2018) [FB2]

        (скачиваний: 65)
        Сергей Лукьяненко | Кайноzой (2018) [FB2]

        (скачиваний: 61)
        Дмитрий Лубнин | Project woman. Тонкости настройки женского организма: узнай, как работает твое тело (2018) [FB2]

        (скачиваний: 59)
        Саба Джанджгава | Король эклеров (2019) [PDF]

        (скачиваний: 58)
        А. Чудова (ред.) | Лучшие уроки. Рисунок карандашом за 30 минут (2016) [PDF]

        (скачиваний: 53)
        Книжная подборка | Миры Содружества «Вселенная EVE-online» [624 книги] (1992-2018) [FB2, DOC]

        (скачиваний: 53)