.
Авторизация | Регистрация

Торрент скачать бесплатно

  • support: webmaster@btracker.club
» » Lynda.com | Основы построения бренда (2014) HDRip [H.264 / 720p-LQ] торрент скачать бесплатно


    Lynda.com | Основы построения бренда (2014) HDRip [H.264 / 720p-LQ] торрент скачать бесплатно

    Дата: 3-02-2019, 05:00 | .torrent скачали: 6

    Lynda.com | Основы построения бренда (2014) HDRip [H.264 / 720p-LQ]Автор (режиссер): Lorrie Thomas Ross
    Производство: Lynda.com
    Жанр: Обучающее
    Оригинальное название: Brand Building Basics

    Описание

    В рамках этого небольшого курса, автор тренингов, оратор и маркетинговый эксперт Лори Томас Росс, последовательно, коммуникативно и максимально доступно, представляет обзор базовых понятий брендинга для вашего бизнеса и лично для вас. В данном курсе показано, как иллюстрации, текст и рыночное позиционирование могут помочь вам увидеть ваших покупателей и получить их доверие. Он включает в себя реальные примеры успешных брендов, и объяснение того, как следующие аспекты: цвет, логотип и шрифты, отсутствие активности в Интернет, воздействуют на ваш успех.
    Продолжительность: 00: 25: 15
    Качество видео: HDRip
    Видео: AVC/H.264, 1280x720, ~4013 Kbps
    Аудио: MP3, 2 ch, 128 Kbps

    Общее
    Полное имя : Lynda.com - Основы построения брендаОсновы построения бренда00. Добро пожаловать.avi
    Формат : AVI
    Формат/Информация : Audio Video Interleave
    Размер файла : 29, 7 Мбайт
    Продолжительность : 59 с. 893 мс.
    Общий поток : 4154 Кбит/сек
    Программа кодирования : VirtualDubMod 1.5.10.2 (build 2540/release)
    Библиотека кодирования : VirtualDubMod build 2540/release
    Видео
    Идентификатор : 0
    Формат : AVC
    Формат/Информация : Advanced Video Codec
    Профиль формата : Main@L3.1
    Настройки формата : CABAC/2 Ref Frames
    Параметр CABAC формата : Да
    Параметр RefFrames формата : 2 кадра
    Идентификатор кодека : H264
    Продолжительность : 59 с. 893 мс.
    Битрейт : 4013 Кбит/сек
    Ширина : 1280 пикселей
    Высота : 720 пикселей
    Соотношение сторон : 16: 9
    Режим частоты кадров : Переменный
    Частота кадров : 29, 970 (30000/1001) кадров/сек
    Цветовое пространство : YUV
    Субдискретизация насыщенности : 4: 2: 0
    Битовая глубина : 8 бит
    Тип развёртки : Прогрессивная
    Бит/(Пиксели*Кадры) : 0.145
    Размер потока : 28, 7 Мбайт (97%)
    Аудио
    Идентификатор : 1
    Формат : MPEG Audio
    Версия формата : Version 1
    Профиль формата : Layer 3
    Идентификатор кодека : 55
    Идентификатор кодека/Подсказка : MP3
    Продолжительность : 59 с. 893 мс.
    Вид битрейта : Постоянный
    Битрейт : 128 Кбит/сек
    Каналы : 2 канала
    Частота : 44, 1 КГц
    Метод сжатия : С потерями
    Размер потока : 936 Кбайт (3%)
    Выравнивание : Разделение по промежуткам
    Продолжительность промежутка : 34 мс. (1, 01 видеокадр)
    Время предзагрузки промежутка : 500 мс.


    Lynda.com | Основы построения бренда (2014) HDRip [H.264/720p-LQ]
    Рейтинг →
     (голосов: 1, оценка 5/5, голосовать можно 1 раз )

    Другие торренты по теме:

  • lynda.com | Foundations of Photography: Composition / Основы фотографии: Композиция (2011) [Ru] PCRec скачать через торрент бесплатно
  • Lynda.com | Основы Веб Технологий / Web Technology Fundamentals†(2013) PCRec скачать через торрент бесплатно
  • Lynda.com | Основы программирования: объектно-ориентированное проектирование (2012) [RU / EN, EN Sub] PCRec


    • Комментарии (0):

      Информация

      Информация

        Посетители, находящиеся в группе Гости, не могут оставлять комментарии в данной новости.

        ↓ Меню




        ↓ Опрос

        Вы добавили сайт в закладки?
        Да
        Нет


        Top 10 за месяц (Книги)

        Тошики Фукуцудзи | Японская система оздоровления. Метод Фукуцудзи (2019) [PDF]

        (скачиваний: 131)
        Джеффри Штрауссер, Хоcе Паниса | Английский без боли для начинающих (2019) [PDF]

        (скачиваний: 119)
        Игорь Иванов | Монтаж электрики в квартире. Для начинающих (2019) [PDF]

        (скачиваний: 104)
        Вячеслав Оробинский | Чему не учат на юрфаке. Тайны договора... и не только (2019) [PDF]

        (скачиваний: 97)
        Нико Бауман | Мысли делают нас. Практика фокусировок (2017) [FB2]

        (скачиваний: 89)
        Фолькер Витткамп | Мужское здоровье. Как у вас с ним (2019) [PDF]

        (скачиваний: 85)
        Джон Форсайт, Георг Эйферт | Тревога приходит и уходит. 52 способа обрести душевное спокойствие (2019) [PDF]

        (скачиваний: 82)
        Ичиро Кишими, Фумитаке Кога | Смелость не нравиться. Как полюбить себя, найти свое призвание и выбрать счастье (2019) [PDF]

        (скачиваний: 81)
        Павел Евдокименко | Принцип пуповины. Новая система для здоровья и жизни (2019) [PDF]

        (скачиваний: 80)
        В.П. Измайлова (ред.) | Здоровая жизнь [4 книги] (2018-2019) [PDF]

        (скачиваний: 78)