.
Авторизация | Регистрация

Торрент скачать бесплатно

  • support: webmaster@btracker.club
» » CG Masters | Мастер создания автомобиля в Blender / Master Car Creation in Blender (2018) PCRec [H.264 / 1080p-LQ] [EN] торрент скачать бесплатно


    CG Masters | Мастер создания автомобиля в Blender / Master Car Creation in Blender (2018) PCRec [H.264 / 1080p-LQ] [EN] торрент скачать бесплатно

    Дата: 1-02-2019, 05:01 | .torrent скачали: 2

    CG Masters | Мастер создания автомобиля в Blender / Master Car Creation in Blender (2018) PCRec [H.264 / 1080p-LQ] [EN]Автор (режиссер): Christopher Plush
    Производство: CG Masters
    Жанр: 3D моделирование

    Описание

    Все секреты создания великолепного автомобиля в Blender упакованы в этот пошаговый курс. Я проведу вас через каждый шаг процесса создания Chevrolet Corvette Stingray, включая моделирование, шейдинг, рендеринг и композитинг. Вы узнаете все методы, необходимые для создания безупречных поверхностей и впечатляющих рендеров.
    Продолжительность: 30: 08: 47
    Качество видео: PCRec
    Язык озвучки: Английский
    Видео: AVC/H.264, 1920х1080, ~8198 Kbps
    Аудио: AAC, 2 ch, 254 Kbps, VBR
    Код: выделить все

    General
    Complete name : C:TorrentsCGMasters - Master Car Creation in Blender (2018)Section 1 - Chapter 1 - Introduction.mp4
    Format : MPEG-4
    Format profile : Base Media/Version 2
    Codec ID : mp42
    File size : 71.3 MiB
    Duration : 1mn 10s
    Overall bit rate mode : Variable
    Overall bit rate : 8 451 Kbps
    Encoded date : UTC 2018-08-29 07:22:47
    Tagged date : UTC 2018-08-29 07:22:47
    Video
    ID : 1
    Format : AVC
    Format/Info : Advanced Video Codec
    Format profile :Baseline@L4.1
    Format settings, CABAC : No
    Format settings, ReFrames : 1 frame
    Format settings, GOP : M=1, N=100
    Codec ID : avc1
    Codec ID/Info : Advanced Video Coding
    Duration : 1mn 10s
    Bit rate : 8 198 Kbps
    Width : 1 920 pixels
    Height : 1 080 pixels
    Display aspect ratio : 16:9
    Frame rate mode : Constant
    Frame rate : 20.000 fps
    Color space : YUV
    Chroma subsampling : 4:2:0
    Bit depth : 8 bits
    Scan type : Progressive
    Bits/(Pixel*Frame) : 0.198
    Stream size : 69.1 MiB (97%)
    Language : English
    Encoded date : UTC 2018-08-29 07:22:47
    Tagged date : UTC 2018-08-29 07:22:47
    Audio
    ID : 2
    Format : AAC
    Format/Info : Advanced Audio Codec
    Format profile : LC
    Codec ID : 40
    Duration : 1mn 10s
    Bit rate mode : Variable
    Bit rate : 254 Kbps
    Maximum bit rate : 304 Kbps
    Channel(s) : 2 channels
    Channel positions : Front: L R
    Sampling rate : 44.1 KHz
    Compression mode : Lossy
    Stream size : 2.14 MiB (3%)
    Language : English
    Encoded date : UTC 2018-08-29 07:22:47
    Tagged date : UTC 2018-08-29 07:22:47


    CG Masters | Мастер создания автомобиля в Blender/Master Car Creation in Blender (2018) PCRec [H.264/1080p-LQ] [EN]
    Рейтинг →
     (голосов: 1, оценка 2/5, голосовать можно 1 раз )

    Другие торренты по теме:

  • Matto: Dilogy / Matto: Дилогия (2007) [Ru] (1.0) Repack / Mod Bert-Masters-Studio скачать через торрент бесплатно
  • Far Cry по-русски 2 (2017) [Ru] (1.0) Mod Bert-Masters-Studio
  • Мастера секса / Masters of Sex (2014) WEB-DL [H.264 / 720p-LQ] (Сезон 2, серии 1-10 из 12) (BaibaKo) (обновляемая)
  • Мастера секса / Masters of Sex (2014) WEB-DLRip (Сезон 2, серии 1-10 из 12) (BaibaKo) (обновляемая)
  • Мастера секса (Masters of Sex) / (Сезон 2, серии 1-10 из 12) BaibaKo (2014) [MP4|720x400] <WEB-DLRip H.264>
  • Мастера секса / Masters of Sex (2014) WEB-DL [H.264 / 720p-LQ] (Сезон 2, серии 1-12 из 12) (Amedia) скачать через торрент бесплатно
  • Мастера секса / Masters of Sex (2014) WEB-DLRip (Сезон 2, серии 1-12 из 12) (Amedia) скачать через торрент бесплатно
  • Mark Masters Ensemble - Everything You Did (2013) [FLAC|Lossless]<Post-Bop, Big Band> скачать через торрент бесплатно


    • Комментарии (0):

      Информация

      Информация

        Посетители, находящиеся в группе Гости, не могут оставлять комментарии в данной новости.

        ↓ Меню




        ↓ Опрос

        Вы добавили сайт в закладки?
        Да
        Нет


        Top 10 за месяц (Книги)

        Тошики Фукуцудзи | Японская система оздоровления. Метод Фукуцудзи (2019) [PDF]

        (скачиваний: 135)
        Джеффри Штрауссер, Хоcе Паниса | Английский без боли для начинающих (2019) [PDF]

        (скачиваний: 122)
        Игорь Иванов | Монтаж электрики в квартире. Для начинающих (2019) [PDF]

        (скачиваний: 104)
        Вячеслав Оробинский | Чему не учат на юрфаке. Тайны договора... и не только (2019) [PDF]

        (скачиваний: 99)
        Нико Бауман | Мысли делают нас. Практика фокусировок (2017) [FB2]

        (скачиваний: 94)
        Фолькер Витткамп | Мужское здоровье. Как у вас с ним (2019) [PDF]

        (скачиваний: 89)
        В.П. Измайлова (ред.) | Здоровая жизнь [4 книги] (2018-2019) [PDF]

        (скачиваний: 86)
        Джон Форсайт, Георг Эйферт | Тревога приходит и уходит. 52 способа обрести душевное спокойствие (2019) [PDF]

        (скачиваний: 85)
        Ичиро Кишими, Фумитаке Кога | Смелость не нравиться. Как полюбить себя, найти свое призвание и выбрать счастье (2019) [PDF]

        (скачиваний: 84)
        Дина Рубина | Наполеонов обоз. Книга 2. Белые лошади (2019) [FB2]

        (скачиваний: 82)