.
Авторизация | Регистрация
Хочешь лучшие торренты? Добавь свой email!
Добавить

Торрент скачать бесплатно

  • support: webmaster@btracker.club
» » Александр Чалдрян | Обзор плагинов Nik Collection (2018) PCRec [H.264] торрент скачать бесплатно


    Александр Чалдрян | Обзор плагинов Nik Collection (2018) PCRec [H.264] торрент скачать бесплатно

    Опубликовал: fregat | Дата: 1-02-2019, 05:01 | .torrent скачали: 0

    Александр Чалдрян | Обзор плагинов Nik Collection (2018) PCRec [H.264]Автор (режиссер): Александр Чалдрян
    Производство: LiveClasses
    Жанр: Обучающее видео, Photoshop, Фотография

    Описание

    Подружись с семейством нужных плагинов для фотошопа!
    Этот живой класс посвящен серии плагинов Nik collection – лидера среди плагинов для Adobe Photoshop. На классе автор тщательно разбирает три наиболее применимых – Color Efex Pro, Silver Efex Pro и Analog Efex Pro. С помощью этих плагинов можно охватить все аспекты обработки изображений – хроматику, работу с тоном и спецэффекты.
    С помощью преподавателя вы сможете извлечь из софта максимальную практическую пользу, не тратя время на изучение различных маркетологических добавлений, которыми, по традиции, снабжен инструментарий. Саша Чалдрян покажет только то, что помогает ему в работе.
    Продолжительность: 01: 13: 06
    Качество видео: PCRec
    Видео: AVC/H.264, 1440×804, ~3000 kb/s
    Аудио: AAC, 2 ch, ~200kbps

    General
    Complete name : ~/LiveClasses - Саша Чалдрян - Обзор плагинов Nik Collection.mp4
    Format : MPEG-4
    Format profile : Base Media/Version 2
    Codec ID : mp42 (isom/iso2/avc1/mp41)
    File size : 1.65 GiB
    Duration : 1 h 13 min
    Overall bit rate mode : Variable
    Overall bit rate : 3 226 kb/s
    Video
    ID : 2
    Format : AVC
    Format/Info : Advanced Video Codec
    Format profile : Main@L4
    Format settings : CABAC/5 Ref Frames
    Format settings, CABAC : Yes
    Format settings, ReFrames : 5 frames
    Codec ID : avc1
    Codec ID/Info : Advanced Video Coding
    Duration : 1 h 13 min
    Bit rate : 3 015 kb/s
    Width : 1 440 pixels
    Height : 804 pixels
    Display aspect ratio : 16: 9
    Frame rate mode : Constant
    Frame rate : 30.000 FPS
    Color space : YUV
    Chroma subsampling : 4: 2: 0
    Bit depth : 8 bits
    Scan type : Progressive
    Bits/(Pixel*Frame) : 0.087
    Stream size : 1.54 GiB (93%)
    Color range : Limited
    Color primaries : BT.709
    Transfer characteristics : BT.709
    Matrix coefficients : BT.709
    Codec configuration box : avcC
    Audio
    ID : 1
    Format : AAC LC
    Format/Info : Advanced Audio Codec Low Complexity
    Codec ID : mp4a-40-2
    Duration : 1 h 13 min
    Bit rate mode : Variable
    Bit rate : 207 kb/s
    Maximum bit rate : 301 kb/s
    Channel(s) : 2 channels
    Channel layout : L R
    Sampling rate : 44.1 kHz
    Frame rate : 43.066 FPS (1024 SPF)
    Compression mode : Lossy
    Stream size : 108 MiB (6%)
    Скриншоты:


    Время раздачи: Ночь (утро–вечер — периодически, до появления первых 3-5 скачавших)


    Александр Чалдрян | Обзор плагинов Nik Collection (2018) PCRec [H.264]
    Рейтинг →
     (голосов: 1, оценка 3/5, голосовать можно 1 раз )

    Другие торренты по теме:

  • [Profileschool] Алена Полосухина и Александр Чалдрян | МК Предметная съемка 2.0 (2014) PCRec
  • [Profileschool] Александр Чалдрян | Авторская обработка. Как это сделано (2014) PCRec
  • [Profileschool] Александр Чалдрян | Коммерческая ретушь (2015) PCRec [H.264 / 1080p] скачать через торрент бесплатно
  • Александр Чалдрян | Ask a Pro. Photoshop: на что способен человек (2015) WEB-DL [H.264]
  • Александр Чалдрян | Коммерческая ретушь (2017) PCRec [H.264]
  • Александр Чалдрян | Adobe Photoshop: Быстрый старт (2018) TS
  • Александр Чалдрян | Практикум по ретуши женского портрета (2018) PCRec [H.264]


    • Комментарии (0):

      Информация

      Информация

        Посетители, находящиеся в группе Гости, не могут оставлять комментарии в данной новости.

        ↓ Меню




        ↓ Опрос

        Вы добавили сайт в закладки?
        Да
        Нет


        Top 10 за месяц (Книги)

        Н.Д. Горбачева (ред.) | Иллюстрированный самоучитель английского языка (2018) [PDF]

        (скачиваний: 96)
        Пол Аллам, Дэвид МакГиннесс | Все сладкое. Превосходные рецепты из легендарной кондитерской (2019) [PDF]

        (скачиваний: 86)
        Журнал | Радио №1 (январь 2019) [DJVU]

        (скачиваний: 81)
        Джен Синсеро | НЕ НОЙ. Только тот, кто перестал сетовать на судьбу, может стать богатым (2019) [FB2]

        (скачиваний: 70)
        Сьюзан Блюм, Мишель Бендер | Программа восстановления иммунной системы (2018) [FB2]

        (скачиваний: 65)
        Сергей Лукьяненко | Кайноzой (2018) [FB2]

        (скачиваний: 61)
        Дмитрий Лубнин | Project woman. Тонкости настройки женского организма: узнай, как работает твое тело (2018) [FB2]

        (скачиваний: 59)
        Саба Джанджгава | Король эклеров (2019) [PDF]

        (скачиваний: 58)
        А. Чудова (ред.) | Лучшие уроки. Рисунок карандашом за 30 минут (2016) [PDF]

        (скачиваний: 53)
        Книжная подборка | Миры Содружества «Вселенная EVE-online» [624 книги] (1992-2018) [FB2, DOC]

        (скачиваний: 53)