.
Авторизация | Регистрация

Торрент скачать бесплатно

  • support: webmaster@btracker.club
» » Udemy | Kali Linux Для Начинающих (2018) PCRec [H.264 / 720p-LQ] торрент скачать бесплатно


    Udemy | Kali Linux Для Начинающих (2018) PCRec [H.264 / 720p-LQ] торрент скачать бесплатно

    Дата: 14-01-2019, 05:00 | .torrent скачали: 34

    Udemy | Kali Linux Для Начинающих (2018) PCRec [H.264 / 720p-LQ]Автор (режиссер): Hackers Academy
    Производство: Udemy
    Жанр: Операционные системы, Linux

    Описание

    Вас пугает командная строка и вы не знаете, что с ней делать? Если да, то этот курс отлично вам подойдет. В этом обучающем курсе начнем с самых азов, предположим, что вы ничего не знаете о Linux! Мы начнем с самых азов и постепенно будем учиться пользоваться Kali Linux. В итоге вы будете как рыба в воде при работе не только в Kali Linux, но и при работе с большинством Linux систем.
    Продолжительность: 07: 24: 11
    Качество видео: PCRec
    Видео: AVC/H.264, 1280x720, ~1663-4002 Kbps
    Аудио: AAC, 2 ch, 191-192 Kbps

    Общее
    Полное имя : .3 Взламываем системы05 - Сканируем уязвимости.mp4
    Формат : MPEG-4
    Профиль формата : Base Media/Version 2
    Идентификатор кодека : mp42 (mp42/isom)
    Размер файла : 101 Мбайт
    Продолжительность : 5 м. 27 с.
    Режим общего битрейта : Переменный
    Общий поток : 2586 Кбит/сек
    Дата кодирования : UTC 2018-10-20 15: 09: 33
    Дата пометки : UTC 2018-10-20 15: 09: 33
    Видео
    Идентификатор : 2
    Формат : AVC
    Формат/Информация : Advanced Video Codec
    Профиль формата : Main@L3.2
    Настройки формата : CABAC/3 Ref Frames
    Параметр CABAC формата : Да
    Параметр RefFrames формата : 3 кадра
    Параметр GOP формата : M=4, N=15
    Идентификатор кодека : avc1
    Идентификатор кодека/Информация : Advanced Video Coding
    Продолжительность : 5 м. 27 с.
    Вид битрейта : Переменный
    Битрейт : 2389 Кбит/сек
    Максимальный битрейт : 4000 Кбит/сек
    Ширина : 1280 пикселей
    Высота : 720 пикселей
    Соотношение сторон : 16: 9
    Режим частоты кадров : Постоянный
    Частота кадров : 30, 000 кадров/сек
    Стандарт вещания : NTSC
    Цветовое пространство : YUV
    Субдискретизация насыщенности : 4: 2: 0
    Битовая глубина : 8 бит
    Тип развёртки : Прогрессивная
    Бит/(Пиксели*Кадры) : 0.086
    Размер потока : 93, 3 Мбайт (92%)
    Язык : English
    Дата кодирования : UTC 2018-10-20 15: 09: 33
    Дата пометки : UTC 2018-10-20 15: 09: 33
    Цветовой диапазон : Limited
    Codec configuration box : avcC
    Аудио
    Идентификатор : 1
    Формат : AAC LC
    Формат/Информация : Advanced Audio Codec Low Complexity
    Идентификатор кодека : mp4a-40-2
    Продолжительность : 5 м. 27 с.
    Вид битрейта : Постоянный
    Битрейт : 192 Кбит/сек
    Каналы : 2 канала
    Channel layout : L R
    Частота : 48, 0 КГц
    Частота кадров : 46, 875 кадров/сек (1024 SPF)
    Метод сжатия : С потерями
    Размер потока : 7, 50 Мбайт (7%)
    Язык : English
    Дата кодирования : UTC 2018-10-20 15: 09: 33
    Дата пометки : UTC 2018-10-20 15: 09: 33
    Скриншоты:


    Время раздачи: 24/7 (круглосуточно) (до появления первых 3-5 скачавших)


    Udemy | Kali Linux Для Начинающих (2018) PCRec [H.264/720p-LQ]
    Рейтинг →
     (голосов: 1, оценка 3/5, голосовать можно 1 раз )

    Другие торренты по теме:

  • Udemy | Metasploit - программа для взлома в хакерском дистрибутиве Kali (2014) WEBRip


    • Комментарии (0):

      Информация

      Информация

        Посетители, находящиеся в группе Гости, не могут оставлять комментарии в данной новости.

        ↓ Меню




        ↓ Опрос

        Вы добавили сайт в закладки?
        Да
        Нет


        Top 10 за месяц (Книги)