.
Авторизация | Регистрация
Хочешь лучшие торренты? Добавь свой email!
Добавить

Торрент скачать бесплатно

  • support: webmaster@btracker.club
» » Дмитрий Лаврик | Javascript. Интенсивный курс для программистов (2018) PCRec [H.264] торрент скачать бесплатно


    Дмитрий Лаврик | Javascript. Интенсивный курс для программистов (2018) PCRec [H.264] торрент скачать бесплатно

    Опубликовал: fregat | Дата: 14-01-2019, 05:00 | .torrent скачали: 0

    Дмитрий Лаврик | Javascript. Интенсивный курс для программистов (2018) PCRec [H.264]Автор (режиссер): Дмитрий Лаврик
    Жанр: Программирование, JavaScrtipt

    Описание

    Цель курса - улучшить знания в javascript – обобщить и укрепить классические темы, рассмотреть и осмыслить новшества стандартов после ES2015. А также выстроить систему написания кода и научиться взаимодействовать с серверной частью. Рассматриваемые темы будут соотноситься с их реализацией и применением во фреймворках React и Vue.
    Продолжительность: 21: 54: 27
    Качество видео: PCRec
    Видео: AVC/H.264, 1680x1048-1920-1080, ~226-377 Kbps
    Аудио: AAC, 2 ch, 125-126 Kbps

    Общее
    Полное имя : .Урок 11 часть 1.mp4
    Формат : MPEG-4
    Профиль формата : Base Media/Version 2
    Идентификатор кодека : mp42 (isom/mp42)
    Размер файла : 248 Мбайт
    Продолжительность : 1 ч. 26 м.
    Режим общего битрейта : Переменный
    Общий поток : 403 Кбит/сек
    Дата кодирования : UTC 2018-11-29 18: 32: 02
    Дата пометки : UTC 2018-11-29 18: 32: 02
    Видео
    Идентификатор : 1
    Формат : AVC
    Формат/Информация : Advanced Video Codec
    Профиль формата : Baseline@L4
    Настройки формата : 3 Ref Frames
    Параметр CABAC формата : Нет
    Параметр RefFrames формата : 3 кадра
    Идентификатор кодека : avc1
    Идентификатор кодека/Информация : Advanced Video Coding
    Продолжительность : 1 ч. 26 м.
    Продолжительность оригинала : 1 ч. 26 м.
    Битрейт : 274 Кбит/сек
    Ширина : 1680 пикселей
    Высота : 1048 пикселей
    Соотношение сторон : 16: 10
    Режим частоты кадров : Переменный
    Частота кадров : 30, 000 кадров/сек
    Минимальная частота кадров : 30, 000 кадров/сек
    Максимальная частота кадров : 30, 030 кадров/сек
    Стандарт вещания : NTSC
    Цветовое пространство : YUV
    Субдискретизация насыщенности : 4: 2: 0
    Битовая глубина : 8 бит
    Тип развёртки : Прогрессивная
    Бит/(Пиксели*Кадры) : 0.005
    Размер потока : 169 Мбайт (68%)
    Размер потока оригинала : 169 Мбайт (68%)
    Язык : English
    Дата кодирования : UTC 2018-11-29 18: 32: 02
    Дата пометки : UTC 2018-11-29 18: 32: 02
    Цветовой диапазон : Limited
    mdhd_Duration : 5165500
    Codec configuration box : avcC
    Аудио
    Идентификатор : 2
    Формат : AAC LC
    Формат/Информация : Advanced Audio Codec Low Complexity
    Идентификатор кодека : mp4a-40-2
    Продолжительность : 1 ч. 26 м.
    Продолжительность оригинала : 1 ч. 26 м.
    Вид битрейта : Переменный
    Битрейт : 126 Кбит/сек
    Максимальный битрейт : 167 Кбит/сек
    Каналы : 2 канала
    Channel layout : L R
    Частота : 44, 1 КГц
    Частота кадров : 43, 066 кадра/сек (1024 SPF)
    Метод сжатия : С потерями
    Размер потока : 77, 4 Мбайт (31%)
    Размер потока оригинала : 77, 4 Мбайт (31%)
    Язык : English
    Дата кодирования : UTC 2018-11-29 18: 32: 02
    Дата пометки : UTC 2018-11-29 18: 32: 02
    mdhd_Duration : 5165535
    Общее
    Полное имя : .Урок 33 часть 2.mp4
    Формат : MPEG-4
    Профиль формата : Base Media/Version 2
    Идентификатор кодека : mp42 (isom/mp42)
    Размер файла : 238 Мбайт
    Продолжительность : 1 ч. 13 м.
    Режим общего битрейта : Переменный
    Общий поток : 451 Кбит/сек
    Дата кодирования : UTC 2018-12-06 22: 34: 31
    Дата пометки : UTC 2018-12-06 22: 34: 31
    Видео
    Идентификатор : 1
    Формат : AVC
    Формат/Информация : Advanced Video Codec
    Профиль формата : Baseline@L4
    Настройки формата : 3 Ref Frames
    Параметр CABAC формата : Нет
    Параметр RefFrames формата : 3 кадра
    Идентификатор кодека : avc1
    Идентификатор кодека/Информация : Advanced Video Coding
    Продолжительность : 1 ч. 13 м.
    Продолжительность оригинала : 1 ч. 13 м.
    Битрейт : 323 Кбит/сек
    Ширина : 1920 пикселей
    Высота : 1080 пикселей
    Соотношение сторон : 16: 9
    Режим частоты кадров : Переменный
    Частота кадров : 30, 000 кадров/сек
    Минимальная частота кадров : 30, 000 кадров/сек
    Максимальная частота кадров : 30, 030 кадров/сек
    Стандарт вещания : NTSC
    Цветовое пространство : YUV
    Субдискретизация насыщенности : 4: 2: 0
    Битовая глубина : 8 бит
    Тип развёртки : Прогрессивная
    Бит/(Пиксели*Кадры) : 0.005
    Размер потока : 170 Мбайт (72%)
    Размер потока оригинала : 170 Мбайт (72%)
    Язык : English
    Дата кодирования : UTC 2018-12-06 22: 34: 32
    Дата пометки : UTC 2018-12-06 22: 34: 32
    Цветовой диапазон : Limited
    mdhd_Duration : 4425667
    Codec configuration box : avcC
    Аудио
    Идентификатор : 2
    Формат : AAC LC
    Формат/Информация : Advanced Audio Codec Low Complexity
    Идентификатор кодека : mp4a-40-2
    Продолжительность : 1 ч. 13 м.
    Продолжительность оригинала : 1 ч. 13 м.
    Вид битрейта : Переменный
    Битрейт : 126 Кбит/сек
    Максимальный битрейт : 171 Кбит/сек
    Каналы : 2 канала
    Channel layout : L R
    Частота : 44, 1 КГц
    Частота кадров : 43, 066 кадра/сек (1024 SPF)
    Метод сжатия : С потерями
    Размер потока : 66, 3 Мбайт (28%)
    Размер потока оригинала : 66, 3 Мбайт (28%)
    Язык : English
    Дата кодирования : UTC 2018-12-06 22: 34: 32
    Дата пометки : UTC 2018-12-06 22: 34: 32
    mdhd_Duration : 4425700


    Дмитрий Лаврик | Javascript. Интенсивный курс для программистов (2018) PCRec [H.264]
    Рейтинг →
     (голосов: 1, оценка 5/5, голосовать можно 1 раз )

    Другие торренты по теме:

  • Дмитрий Лаврик | Мастер-класс по вёрстке с помощью flexbox (2015) PCRec
  • Дмитрий Лаврик | JavaSсript. Интенсивный курс для верстальщиков (2017) PCRec
  • Дмитрий Лаврик | Школа современных технологий | JavaScript (2015) PCRec
  • Дмитрий Лаврик | Школа современных технологий | PHP - уровень 1 (2015) PCRec
  • Дмитрий Лаврик | Продвинутая вёрстка по сетке smartgrid (2017) PCRec
  • Дмитрий Лаврик | PHP парсеры (2015) PCRec [H.264]
  • Дмитрий Лаврик | Курс по WordPress (2017) PCRec [H.264]
  • Дмитрий Лаврик | Vue.js (2017) PCRec [H.264]


    • Комментарии (0):

      Информация

      Информация

        Посетители, находящиеся в группе Гости, не могут оставлять комментарии в данной новости.

        ↓ Меню




        ↓ Опрос

        Вы добавили сайт в закладки?
        Да
        Нет


        Top 10 за месяц (Книги)

        Анастасия Пономаренко, Семён Лавриненко | Другое тело. Программа стройности для мужчин и женщин от спортивного врача (2019) [PDF]

        (скачиваний: 85)
        Виктор Пелевин | Тайные виды на гору Фудзи (2018) [MP3]

        (скачиваний: 78)
        Виктор Островский | Восстановление здоровья в домашних условиях (2018) [PDF]

        (скачиваний: 77)
        Кэрол Флеминг | Говорить легко! Как стать приятным собеседником, общаясь уверенно и непринужденно (2019) [PDF]

        (скачиваний: 71)
        Книжная подборка | Миры Содружества «Вселенная EVE-online» [624 книги] (1992-2018) [FB2, DOC]

        (скачиваний: 70)
        Том Рат | Максимальный заряд. Как наполнить энергией профессиональную и личную жизнь (2019) [PDF]

        (скачиваний: 65)
        Гузель Магдиева | Искусство на десерт. Книга рецептов от уникального кондитера современности (2019) [PDF]

        (скачиваний: 55)
        Дэвид Перлмуттер, Кристин Лоберг | Еда и мозг на практике. Программа для развития мозга, снижения веса и укрепления здоровья (2019) [PDF]

        (скачиваний: 52)
        Ева Кац | 30 правил настоящего мечтателя. Практическая мечталогия на каждый день (2019) [PDF]

        (скачиваний: 51)
        Сергей Лукьяненко | КВАZИ (2016) [FB2]

        (скачиваний: 45)