.
Авторизация | Регистрация
Хочешь лучшие торренты? Добавь свой email!
Добавить

Торрент скачать бесплатно

  • support: webmaster@btracker.club
» » ВидеоАтлас Анатомии Человека / Aclands Atlas of Human Anatomy 6 DVD-Pack (2003) DVDRip [H.264] [EN] торрент скачать бесплатно


    ВидеоАтлас Анатомии Человека / Aclands Atlas of Human Anatomy 6 DVD-Pack (2003) DVDRip [H.264] [EN] торрент скачать бесплатно

    Опубликовал: fregat | Дата: 11-01-2019, 05:00 | .torrent скачали: 0

    ВидеоАтлас Анатомии Человека / Aclands Atlas of Human Anatomy 6 DVD-Pack (2003) DVDRip [H.264] [EN]Производство: США
    Жанр: Видеолекции по Анатомии Человека

    Описание

    Перед вами самая лучшая познавательная анатомия на 6 дисках, этот материал будет полезен не только простым обывателям, но и знатокам!! В этом видео анатомию нашего организма показывают на завещавших науке умерших людях, так, что никаких учебников, все реально! Мышцы, связки, сухожилия, кости, внутренние органы, зрение, мозг и т.д. и т.п., все все все... Если вам интересно что у вас внутри и как это устроено - это для вас.
    Продолжительность: 15: 09: 25
    Качество видео: DVDRip
    Язык озвучки: Английский
    Видео: AVCH.264, 720x480, ~ 663 Kbps
    Аудио: AAC, 2 ch, ~96 Kbps
    Код: выделить все

    General
    Complete name : Acland Video Atlas of Human Anatomy [6DVDRip, x264 2pass, 2003]Диск 04 03.mp4
    Format : MPEG-4
    Format profile : Base Media
    Codec ID : isom (isom/iso2/avc1/mp41)
    File size : 159 MiB
    Duration : 28 min 58 s
    Overall bit rate : 767 kb/s
    Writing application : XviD4PSP 7.0.375 DAILY
    encoding_info : MATROSKA/WEBM MP4 Apple 1080p/HEVC X264 CRF-2P 21.0 HQ/AAC-LC AAC VBR 4 LC
    Video #1
    ID : 1
    Format : AVC
    Format/Info : Advanced Video Codec
    Format profile :High@L4.1
    Format settings : CABAC/4 Ref Frames
    Format settings, CABAC : Yes
    Format settings, RefFrames : 4 frames
    Codec ID : avc1
    Codec ID/Info : Advanced Video Coding
    Duration : 28 min 58 s
    Bit rate : 663 kb/s
    Width : 720 pixels
    Height : 480 pixels
    Display aspect ratio : 4:3
    Frame rate mode : Constant
    Frame rate : 29.970 (30000/1001) FPS
    Standard : NTSC
    Color space : YUV
    Chroma subsampling : 4:2:0
    Bit depth : 8 bits
    Scan type : Progressive
    Bits/(Pixel*Frame) : 0.064
    Stream size : 137 MiB (86%)
    Writing library : x264 core 148 r2762M 90a61ec
    Encoding settings : cabac=1/ref=3/deblock=1:0:0/analyse=0x3:0x133/me=hex/subme=7/psy=1/psy_rd=1.00:0.20/mixed_ref=1/me_range=16/chroma_me=1/trellis=1/8x8dct=1/cqm=0/deadzone=21, 11/fast_pskip=1/chroma_qp_offset=-3/threads=9/lookahead_threads=1/sliced_threads=0/nr=0/decimate=1/interlaced=0/bluray_compat=0/constrained_intra=0/bframes=3/b_pyramid=2/b_adapt=2/b_bias=0/direct=3/weightb=1/open_gop=0/weightp=2/keyint=290/keyint_min=29/scenecut=40/intra_refresh=0/rc_lookahead=40/rc=2pass/mbtree=1/bitrate=663/ratetol=1.0/qcomp=0.60/qpmin=0/qpmax=69/qpstep=4/cplxblur=20.0/qblur=0.5/vbv_maxrate=40000/vbv_bufsize=30000/nal_hrd=none/filler=0/ip_ratio=1.40/aq=1:1.00
    Menus : 3
    Audio #2
    ID : 2
    Format : AAC
    Format/Info : Advanced Audio Codec
    Format profile : LC
    Codec ID : mp4a-40-2
    Duration : 28 min 58 s
    Bit rate mode : Constant
    Bit rate : 96.0 kb/s
    Channel(s) : 2 channels
    Channel positions : Front: L R
    Sampling rate : 48.0 kHz
    Frame rate : 46.875 FPS (1024 SPF)
    Compression mode : Lossy
    Stream size : 19.7 MiB (12%)
    Language : English
    Default : Yes
    Alternate group : 1
    Menus : 3
    Видео атлас человеческой анатомии доктора Robert Acland\'s показывает истинное изображение реальных, изящных препаратов и анализирует человеческую анатомию в трех измерениях. Перемещение камеры с одной точки зрения к другой, позволяет ощутить препараты как трехмерный объект. Новые, небальзамированные препараты используемые в Атласе Аcland\'s, сохраняют цвет, текстуру, подвижность и красоту живого человеческого тела. Краткое синхронизированное повествование выполняется по всей программе. При показе каждой новой структуре ее название появляется на экране.


    ВидеоАтлас Анатомии Человека/Aclands Atlas of Human Anatomy 6 DVD-Pack (2003) DVDRip [H.264] [EN]
    Рейтинг →
     (голосов: 1, оценка 4/5, голосовать можно 1 раз )

    Другие торренты по теме:

  • ВидеоАтлас Анатомии Человека / Aclands Atlas of Human Anatomy 6 DVD-Pack (2003) DVDRip


    • Комментарии (0):

      Информация

      Информация

        Посетители, находящиеся в группе Гости, не могут оставлять комментарии в данной новости.

        ↓ Меню




        ↓ Опрос

        Вы добавили сайт в закладки?
        Да
        Нет


        Top 10 за месяц (Книги)

        Анастасия Пономаренко, Семён Лавриненко | Другое тело. Программа стройности для мужчин и женщин от спортивного врача (2019) [PDF]

        (скачиваний: 83)
        Виктор Пелевин | Тайные виды на гору Фудзи (2018) [MP3]

        (скачиваний: 77)
        Виктор Островский | Восстановление здоровья в домашних условиях (2018) [PDF]

        (скачиваний: 74)
        Книжная подборка | Миры Содружества «Вселенная EVE-online» [624 книги] (1992-2018) [FB2, DOC]

        (скачиваний: 70)
        Кэрол Флеминг | Говорить легко! Как стать приятным собеседником, общаясь уверенно и непринужденно (2019) [PDF]

        (скачиваний: 69)
        Том Рат | Максимальный заряд. Как наполнить энергией профессиональную и личную жизнь (2019) [PDF]

        (скачиваний: 64)
        Гузель Магдиева | Искусство на десерт. Книга рецептов от уникального кондитера современности (2019) [PDF]

        (скачиваний: 54)
        Ева Кац | 30 правил настоящего мечтателя. Практическая мечталогия на каждый день (2019) [PDF]

        (скачиваний: 51)
        Дэвид Перлмуттер, Кристин Лоберг | Еда и мозг на практике. Программа для развития мозга, снижения веса и укрепления здоровья (2019) [PDF]

        (скачиваний: 51)
        Сергей Лукьяненко | КВАZИ (2016) [FB2]

        (скачиваний: 43)