.
Авторизация | Регистрация
Хочешь лучшие торренты? Добавь свой email!
Добавить

Торрент скачать бесплатно

  • support: webmaster@btracker.club
» » Itproger | Создание Андроид игры на Unity 5 (2018) PCRec [H.264 / 1080p-LQ] торрент скачать бесплатно


    Itproger | Создание Андроид игры на Unity 5 (2018) PCRec [H.264 / 1080p-LQ] торрент скачать бесплатно

    Опубликовал: fregat | Дата: 1-01-2019, 05:00 | .torrent скачали: 0

    Itproger | Создание Андроид игры на Unity 5 (2018) PCRec [H.264 / 1080p-LQ]Автор (режиссер): Гоша Дударь
    Производство: Itproger
    Жанр: Программирование, Unity

    Описание

    В ходе видеокурса мы создадим игру, которую вы сейчас можете скачать из Google Play или же из App Store. В видеокурсе будет создана точно такая же игра, что вы скачаете и будут рассмотрены все моменты публикации и разработки игры.
    Продолжительность: 07: 19: 24
    Качество видео: PCRec
    Видео: AVC/H.264, 1920x1080, ~248-1044 Kbps
    Аудио: AAC, 2 ch, 125 Kbps

    Общее
    Полное имя : .2 Основная сцена игры.mp4
    Формат : MPEG-4
    Профиль формата : Base Media
    Идентификатор кодека : isom (isom/iso2/avc1/mp41)
    Размер файла : 150 Мбайт
    Продолжительность : 26 м. 58 с.
    Общий поток : 780 Кбит/сек
    Программа кодирования : Lavf56.40.101
    Видео
    Идентификатор : 1
    Формат : AVC
    Формат/Информация : Advanced Video Codec
    Профиль формата : High@L4.2
    Настройки формата : CABAC/2 Ref Frames
    Параметр CABAC формата : Да
    Параметр RefFrames формата : 2 кадра
    Идентификатор кодека : avc1
    Идентификатор кодека/Информация : Advanced Video Coding
    Продолжительность : 26 м. 58 с.
    Битрейт : 639 Кбит/сек
    Ширина : 1920 пикселей
    Высота : 1080 пикселей
    Соотношение сторон : 16: 9
    Режим частоты кадров : Переменный
    Частота кадров : 59, 940 (59940/1000) кадров/сек
    Минимальная частота кадров : 59, 920 кадров/сек
    Максимальная частота кадров : 90000, 000 кадров/сек
    Цветовое пространство : YUV
    Субдискретизация насыщенности : 4: 2: 0
    Битовая глубина : 8 бит
    Тип развёртки : Прогрессивная
    Бит/(Пиксели*Кадры) : 0.005
    Размер потока : 123 Мбайт (82%)
    Цветовой диапазон : Limited
    Основные цвета : BT.709
    Характеристики трансфера : BT.709
    Коэффициенты матрицы : BT.709
    Codec configuration box : avcC
    Аудио
    Идентификатор : 2
    Формат : AAC LC
    Формат/Информация : Advanced Audio Codec Low Complexity
    Идентификатор кодека : mp4a-40-2
    Продолжительность : 26 м. 58 с.
    Вид битрейта : Постоянный
    Битрейт : 126 Кбит/сек
    Каналы : 2 канала
    Channel layout : L R
    Частота : 44, 1 КГц
    Частота кадров : 43, 066 кадра/сек (1024 SPF)
    Метод сжатия : С потерями
    Размер потока : 24, 2 Мбайт (16%)
    Default : Да
    AlternateGroup/String : 1


    Itproger | Создание Андроид игры на Unity 5 (2018) PCRec [H.264/1080p-LQ]
    Рейтинг →
     (голосов: 1, оценка 3/5, голосовать можно 1 раз )

    Другие торренты по теме:

  • Itproger | Курс по изучению PHP и MySQL до профи (2018) PCRec [H.264 / 1080p-LQ]
  • Itproger | Изучение Java (2018) PCRec [H.264 / 1080p-LQ]
  • Itproger | Полное изучение языка Python (2018) PCRec [H.264 / 1080p-LQ]


    • Комментарии (0):

      Информация

      Информация

        Посетители, находящиеся в группе Гости, не могут оставлять комментарии в данной новости.

        ↓ Меню




        ↓ Опрос

        Вы добавили сайт в закладки?
        Да
        Нет


        Top 10 за месяц (Книги)

        Анастасия Пономаренко, Семён Лавриненко | Другое тело. Программа стройности для мужчин и женщин от спортивного врача (2019) [PDF]

        (скачиваний: 67)
        Том Рат | Максимальный заряд. Как наполнить энергией профессиональную и личную жизнь (2019) [PDF]

        (скачиваний: 58)
        Кэрол Флеминг | Говорить легко! Как стать приятным собеседником, общаясь уверенно и непринужденно (2019) [PDF]

        (скачиваний: 57)
        Виктор Пелевин | Тайные виды на гору Фудзи (2018) [MP3]

        (скачиваний: 54)
        Книжная подборка | Миры Содружества «Вселенная EVE-online» [624 книги] (1992-2018) [FB2, DOC]

        (скачиваний: 52)
        Гузель Магдиева | Искусство на десерт. Книга рецептов от уникального кондитера современности (2019) [PDF]

        (скачиваний: 48)
        Виктор Островский | Восстановление здоровья в домашних условиях (2018) [PDF]

        (скачиваний: 47)
        Дэвид Перлмуттер, Кристин Лоберг | Еда и мозг на практике. Программа для развития мозга, снижения веса и укрепления здоровья (2019) [PDF]

        (скачиваний: 41)
        Ева Кац | 30 правил настоящего мечтателя. Практическая мечталогия на каждый день (2019) [PDF]

        (скачиваний: 40)
        Эдгар Шейн | Помощь. Как ее предлагать, оказывать и принимать (2019) [PDF]

        (скачиваний: 35)