.
Авторизация | Регистрация
Хочешь лучшие торренты? Добавь свой email!
Добавить

Торрент скачать бесплатно

  • support: webmaster@btracker.club
» » Itproger | Изучение Java (2018) PCRec [H.264 / 1080p-LQ] торрент скачать бесплатно


    Itproger | Изучение Java (2018) PCRec [H.264 / 1080p-LQ] торрент скачать бесплатно

    Опубликовал: fregat | Дата: 1-01-2019, 05:00 | .torrent скачали: 13

    Itproger | Изучение Java (2018) PCRec [H.264 / 1080p-LQ]Автор (режиссер): Гоша Дударь
    Производство: Itproger
    Жанр: Программирование, Java

    Описание

    Курс рассчитан на новичков, которые хотят улучшить знания в Java разработке. В курсе будут рассмотрены такие темы, как: программирование на Java, создание UI дизайна приложений и добавление к ним функциональности, а также разработка программ в Android Studio под многочисленные Андроид устройства.
    Продолжительность: 13: 27: 12
    Качество видео: PCRec
    Видео: AVC/H.264, 1920x1080, ~107-537 Kbps
    Аудио: AAC, 2 ch, 127-131 Kbps

    Общее
    Полное имя : .3 Андроид разработка12. Доработка приложения Список дел и создание дизайн.mp4
    Формат : MPEG-4
    Профиль формата : Base Media
    Идентификатор кодека : isom (isom/iso2/avc1/mp41)
    Размер файла : 102 Мбайт
    Продолжительность : 39 м. 45 с.
    Общий поток : 360 Кбит/сек
    Программа кодирования : Lavf56.40.101
    Видео
    Идентификатор : 1
    Формат : AVC
    Формат/Информация : Advanced Video Codec
    Профиль формата : High@L4
    Настройки формата : CABAC/2 Ref Frames
    Параметр CABAC формата : Да
    Параметр RefFrames формата : 2 кадра
    Идентификатор кодека : avc1
    Идентификатор кодека/Информация : Advanced Video Coding
    Продолжительность : 39 м. 45 с.
    Duration_FirstFrame : -33 мс.
    Битрейт : 224 Кбит/сек
    Ширина : 1920 пикселей
    Высота : 1080 пикселей
    Соотношение сторон : 16: 9
    Режим частоты кадров : Переменный
    Частота кадров : 29, 970 кадров/сек
    Минимальная частота кадров : 29, 970 кадров/сек
    Максимальная частота кадров : 30, 030 кадров/сек
    Цветовое пространство : YUV
    Субдискретизация насыщенности : 4: 2: 0
    Битовая глубина : 8 бит
    Тип развёртки : Прогрессивная
    Бит/(Пиксели*Кадры) : 0.004
    Размер потока : 63, 8 Мбайт (62%)
    Цветовой диапазон : Limited
    Основные цвета : BT.709
    Характеристики трансфера : BT.709
    Коэффициенты матрицы : BT.709
    Codec configuration box : avcC
    Аудио
    Идентификатор : 2
    Формат : AAC LC
    Формат/Информация : Advanced Audio Codec Low Complexity
    Идентификатор кодека : mp4a-40-2
    Продолжительность : 39 м. 45 с.
    Вид битрейта : Постоянный
    Битрейт : 128 Кбит/сек
    Каналы : 2 канала
    Channel layout : L R
    Частота : 44, 1 КГц
    Частота кадров : 43, 066 кадра/сек (1024 SPF)
    Метод сжатия : С потерями
    Размер потока : 36, 4 Мбайт (36%)
    Default : Да
    AlternateGroup/String : 1


    Itproger | Изучение Java (2018) PCRec [H.264/1080p-LQ]
    Рейтинг →
     (голосов: 1, оценка 5/5, голосовать можно 1 раз )

    Другие торренты по теме:

  • Itproger | Полное изучение языка Python (2018) PCRec [H.264 / 1080p-LQ]


    • Комментарии (0):

      Информация

      Информация

        Посетители, находящиеся в группе Гости, не могут оставлять комментарии в данной новости.

        ↓ Меню




        ↓ Опрос

        Вы добавили сайт в закладки?
        Да
        Нет


        Top 10 за месяц (Книги)

        Книжная подборка | Миры Содружества «Вселенная EVE-online» [624 книги] (1992-2018) [FB2, DOC]

        (скачиваний: 158)
        В.М. Жабцев | Большая книга электрика. Самое полное иллюстрированное руководство (2017) [PDF]

        (скачиваний: 116)
        Екатерина Макарова | Bravo, Penis! Об интимной жизни глазами врача (2019) [FB2]

        (скачиваний: 98)
        Владимир Зещинский | Наяль Давье. Барон пограничья (2017) [FB2]

        (скачиваний: 92)
        Серия книг | Рисуем на коленке [6 книг] (2016-2107) [PDF]

        (скачиваний: 91)
        Сергей Тармашев | Каждому своё 3 (2018) [FB2]

        (скачиваний: 90)
        Альберт Джексон, Дейвид Дэй | Мастер ремонта (2017) [PDF]

        (скачиваний: 87)
        Анджей Гришевский, Пшемыслав Пиларски | ОН. Интимный разговор про тот самый орган (2019) [FB2]

        (скачиваний: 82)
        Роберт Саттон | Как выжить среди м*даков. Лучшие практики (2018) [FB2, EPUB, MOBI] [18+]

        (скачиваний: 81)
        Филип Тетлок, Дэн Гарднер | Думай медленно – предсказывай точно. Искусство и наука предвидеть опасность (2018) [FB2]

        (скачиваний: 77)