.
Авторизация | Регистрация

Торрент скачать бесплатно

  • support: webmaster@btracker.club
» » Udemy | Полный курс по JavaScript (2018) PCRec [H.264 / 720p-LQ] торрент скачать бесплатно


    Udemy | Полный курс по JavaScript (2018) PCRec [H.264 / 720p-LQ] торрент скачать бесплатно

    Дата: 1-01-2019, 05:00 | .torrent скачали: 23

    Udemy | Полный курс по JavaScript (2018) PCRec [H.264 / 720p-LQ]Автор (режиссер): Иван Петриченко
    Производство: Udemy
    Жанр: Программирование, JavaScript

    Описание

    Этот курс направлен на подробное изучение JavaScript без воды, но главное - немедленное применение его на практике.
    Это значит, что вы получите материал для работы и мы вместе будем создавать реальные проекты шаг за шагом.
    Продолжительность: 13: 15: 16
    Качество видео: PCRec
    Видео: AVC/H.264, 1280x720, ~857-1791 Kbps
    Аудио: AAC, 2 ch, 127-128 Kbps

    Общее
    Полное имя : .2 Основы JavaScript14 Объектно Ориентированное Программирование (ООП)14 Объектно Ориентированное Программирование (ООП).mp4
    Формат : MPEG-4
    Профиль формата : Base Media
    Идентификатор кодека : isom (isom/iso2/avc1/mp41)
    Размер файла : 59, 2 Мбайт
    Продолжительность : 6 м. 20 с.
    Общий поток : 1306 Кбит/сек
    Программа кодирования : Lavf58.12.100
    Видео
    Идентификатор : 1
    Формат : AVC
    Формат/Информация : Advanced Video Codec
    Профиль формата : Main@L3.1
    Настройки формата : CABAC/4 Ref Frames
    Параметр CABAC формата : Да
    Параметр RefFrames формата : 4 кадра
    Параметр GOP формата : M=4, N=60
    Идентификатор кодека : avc1
    Идентификатор кодека/Информация : Advanced Video Coding
    Продолжительность : 6 м. 20 с.
    Битрейт : 1169 Кбит/сек
    Номинальный битрейт : 3000 Кбит/сек
    Ширина : 1280 пикселей
    Высота : 720 пикселей
    Соотношение сторон : 16: 9
    Режим частоты кадров : Постоянный
    Частота кадров : 30, 000 кадров/сек
    Цветовое пространство : YUV
    Субдискретизация насыщенности : 4: 2: 0
    Битовая глубина : 8 бит
    Тип развёртки : Прогрессивная
    Бит/(Пиксели*Кадры) : 0.042
    Размер потока : 53, 0 Мбайт (90%)
    Библиотека кодирования : x264 core 148
    Настройки программы : cabac=1/ref=3/deblock=1: -1: -1/analyse=0x1: 0x111/me=umh/subme=6/psy=1/psy_rd=1.00: 0.15/mixed_ref=1/me_range=16/chroma_me=1/trellis=1/8x8dct=0/cqm=0/deadzone=21, 11/fast_pskip=1/chroma_qp_offset=-3/threads=22/lookahead_threads=3/sliced_threads=0/nr=0/decimate=1/interlaced=0/bluray_compat=0/constrained_intra=0/bframes=3/b_pyramid=2/b_adapt=1/b_bias=0/direct=1/weightb=1/open_gop=0/weightp=2/keyint=60/keyint_min=6/scenecut=0/intra_refresh=0/rc_lookahead=60/rc=cbr/mbtree=1/bitrate=3000/ratetol=1.0/qcomp=0.60/qpmin=0/qpmax=69/qpstep=4/vbv_maxrate=3000/vbv_bufsize=6000/nal_hrd=none/filler=0/ip_ratio=1.40/aq=1: 1.00
    Codec configuration box : avcC
    Аудио
    Идентификатор : 2
    Формат : AAC LC
    Формат/Информация : Advanced Audio Codec Low Complexity
    Идентификатор кодека : mp4a-40-2
    Продолжительность : 6 м. 20 с.
    Вид битрейта : Постоянный
    Битрейт : 128 Кбит/сек
    Каналы : 2 канала
    Channel layout : L R
    Частота : 48, 0 КГц
    Частота кадров : 46, 875 кадров/сек (1024 SPF)
    Метод сжатия : С потерями
    Размер потока : 5, 81 Мбайт (10%)
    Default : Да
    AlternateGroup/String : 1
    Скриншоты:


    Время раздачи: 24/7 (круглосуточно) (до появления первых 3-5 скачавших)


    Udemy | Полный курс по JavaScript (2018) PCRec [H.264/720p-LQ]
    Рейтинг →
     (голосов: 1, оценка 4/5, голосовать можно 1 раз )

    Другие торренты по теме:

  • Udemy | Полный курс по кибербезопасности: Секреты хакеров! [Часть 1-3] (2017) PCRec [H.264 / 720p-LQ]
  • Udemy | Полный курс по кибербезопасности: Сетевая безопасность! (2017) PCRec [H.264 / 720p-LQ] [EN]
  • Udemy | Полный курс по кибербезопасности: Сетевая безопасность! [Часть 1 из 9] (2017) PCRec [H.264 / 720p-LQ]
  • Udemy | Полный Курс Python С Нуля До Героя (2017) PCRec [H.264 / 1080p-LQ]


    • Комментарии (0):

      Информация

      Информация

        Посетители, находящиеся в группе Гости, не могут оставлять комментарии в данной новости.

        ↓ Меню




        ↓ Опрос

        Вы добавили сайт в закладки?
        Да
        Нет


        Top 10 за месяц (Книги)